IMDb: 7.7 S16E1 Ghost Adventures - Season 16 | Elfen Lied | Dan Cohen

Скачать через торрент [VIDEO] Новый кулак ярости New Fist Of Fury бесплатно русская версия torrent активатор

Статистика раздачи
Размер:  542 MB   |    Зарегистрирован:  3 года 3 месяца   |    .torrent скачан:  32 раза   |   
Раздают:  1  
   
загрузка...
 
Автор Сообщение

Galfimbul

avatar Galfimbul


Новый кулак ярости / New Fist Of Fury / Xin jing wu men [Расширенная, полная версия]

Год выпуска: 1976
Страна: Гонконг, Тайвань
Студия: Lo Wei Motion Picture Co
Жанр: боевик, драма
Продолжительность: 02:00:06
Перевод: Профессиональный (двухголосый, закадровый) Видеофильм
Режиссер: Вэй Ло / Wei Lo
Сценаристы: Вэй Ло / Wei Lo, Ли Пан / Lei Pan
Операторы: Чао Юнг Чен / Chao Yung Chen, Чунг Йуан Чен / Chung Yuan Chen, Юнг Шу Чен / Yung Shu Chen
Композитор: Юн-Ю Чен / Yung-Yu Chen
В ролях: Джеки Чан / Jackie Chan (в титрах: Chen Yuen Lung) (A Lung), Минг Чэн Чанг / Ming Cheng Chang, Шен Лин Чанг / Shen Lin Chang, Чао-Юн Чен / Chao Yung Chen, Джен Чен / Jen Chen, Синг Чан / Sing Chen, Сиу Сиу Ченг / Siu Siu Cheng, Кэм Чунг / Kam Cheung и другие .
Премьера (мир): 8 июля 1976
Описание: Сиквел к «Кулаку ярости» с Брюсом Ли начинается там же, где заканчивается оригинальный фильм. Оставшиеся три соратника героя Брюса Ли, убитого в первом фильме, уезжают из Шанхая на Тайвань, чтобы продолжить там свою борьбу с японскими захватчиками.

В это время там появляется новый начальник-японец, большой специалист по боевым искусствам, который решает взять под свою юрисдикцию все школы китайских боевых искусств, что, естественно, не нравится китайцам.

Джеки Чан же здесь играет уличного воришку, которого «волею судеб» заносит в школу героя Хана Ин Чи, куда попадает и троица из Шанхая.

В фильме в эпизодической роли можно увидеть Ло Вэя, изображающего инспектора.

Релиз группы
Качество: HDRip / [url=...4969378]BDRip 720p[/url]
Формат: MP4
Видео кодек: XVID
Аудио кодек: AAC
Видео: 480x216 AR:2.222 500 kbps, 23.976 fps
Аудио: [Russian] 2ch 48 kHz 128 kbps - [DVO] Видеофильм
GeneralComplete name : J:\Torrents\New.Fist.of.Fury.1976.HDRip.x264.480x.rip by Frost O.S.mp4Format : MPEG-4Format profile : Base MediaCodec ID : isomFile size : 542 MiBDuration : 2h 0mnOverall bit rate mode : VariableOverall bit rate : 631 KbpsMovie name : New Fist of Fury 1976 HDRip x264 960x rip by Frost O SPerformer : / Джеки Чан / / Jackie ChanGenre : ActionContentType : Short FilmRecorded date : 8 июля 1976Encoded date : UTC 2015-04-14 11:54:25Tagged date : UTC 2015-04-14 11:55:48Writing application : MkvToMp4 version: 0.224 (x32)Cover : YesComment : rip by Frost O.SLongDescription : Сиквел к «Кулаку ярости» с Брюсом Ли начинается там же, где заканчивается оригинальный фильм. Оставшиеся три соратника героя Брюса Ли, убитого в первом фильме, уезжают из Шанхая на Тайвань, чтобы продолжить там свою борьбу с японскими захватчиками. / В это время там появляется новый начальник-японец, большой специалист по боевым искусствам, который решает взять под свою юрисдикцию все школы китайских боевых искусств, что, естественно, не нравится китайцам. / Джеки Чан же здесь играет уличного воришку, которого «волею судеб» заносит в школу героя Хана Ин Чи, куда попадает и троица из Шанхая.ContentRating : ru-movie|16+|375|iTunMOVI : <?xml version="1.0" encoding="UTF-8"?> / <!DOCTYPE plist PUBLIC "-//Apple//DTD PLIST 1.0//EN" "http://www.apple.com/DTDs/PropertyList-1.0.dtd"> / <plist version="1.0"> / <dict> / <key>cast</key> / <array> / <dict> / <key>name</key> / <string>Джеки Чан / Jackie Chan (в титрах: Chen Yuen Lung) (A Lung)</string> / </dict> / <dict> / <key>name</key> / <string>Минг Чэн Чанг / Ming Cheng Chang</string> / </dict> / <dict> / <key>name</key> / <string>Шен Лин Чанг / Shen Lin Chang</string> / </dict> / <dict> / <key>name</key> / <string>Чао-Юн Чен / Chao Yung Chen</string> / </dict> / <dict> / <key>name</key> / <string>Джен Чен / Jen Chen</string> / </dict> / <dict> / <key>name</key> / <string>Синг Чан / Sing Chen</string> / </dict> / <dict> / <key>name</key> / <string>Сиу Сиу Ченг / Siu Siu Cheng</string> / </dict> / <dict> / <key>name</key> / <string>Кэм Чунг / Kam Cheung и другие .</string> / </dict> / </array> / <key>directors</key> / <array> / <dict> / <key>name</key> / <string>Вэй Ло</string> / </dict> / </array> / <key>producers</key> / <array> / <dict> / <key>name</key> / <string>Ли Хва Сю</string> / </dict> / <dict> / <key>name</key> / <string>Вэй Ло</string> / </dict> / <dict> / <key>name</key> / <string>Сан Мин Лу</string> / </dict> / </array> / <key>screenwriters</key> / <array> / <dict> / <key>name</key> / <string>Вэй Ло</string> / </dict> / <dict> / <key>name</key> / <string>Ли Пан</string> / </dict> / </array> / </dict> / </plist>

VideoID : 1Format : MPEG-4 VisualFormat profile : Advanced [email protected] settings, BVOP : YesFormat settings, QPel : NoFormat settings, GMC : No warppointsFormat settings, Matrix : CustomCodec ID : 20Duration : 2h 0mnBit rate mode : VariableBit rate : 499 KbpsMaximum bit rate : 2 563 KbpsWidth : 480 pixelsHeight : 216 pixelsDisplay aspect ratio : 2.222Frame rate mode : ConstantFrame rate : 23.976 fpsColor space : YUVChroma subsampling : 4:2:0Bit depth : 8 bitsScan type : ProgressiveCompression mode : LossyBits/(Pixel*Frame) : 0.201Stream size : 429 MiB (79%)Writing library : XviD 73Language : EnglishTagged date : UTC 2015-04-14 11:55:37

AudioID : 2Format : AACFormat/Info : Advanced Audio CodecFormat profile : LCCodec ID : 40Duration : 2h 0mnBit rate mode : VariableBit rate : 128 KbpsMaximum bit rate : 130 KbpsChannel(s) : 2 channelsChannel positions : Front: L RSampling rate : 48.0 KHzCompression mode : LossyStream size : 110 MiB (20%)Title : [DVO] VideofilmLanguage : RussianEncoded date : UTC 2015-04-14 11:54:29Tagged date : UTC 2015-04-14 11:55:37


Трекер:  [ 14-Апр-2015 16:00 ]

  

Скачать .torrent

Размер .torrent файла 11 KB


Размер: 542 MB
Хэш (hash) релиза: bccd1aa693f192a962314c1dcc67d4e1e22593ac

Торренты, похожие на [VIDEO] Новый кулак ярости New Fist Of Fury скачать торрент

Форум Название Автор Размер S L Добавлен
Видео (Фильмы/Клипы) ·· [VIDEO] Новый кулак ярости / New Fist Of Fury / Xin jing wu men (Вэй Ло / Wei Lo) [1976, боевик, драма, HDRip] [MP4, 960x] [Расширенная, полная версия] DVO, VO Tai Seng, Original +Sub (Rus) Galfimbul 19202652501.79 GB 0 0 1429017569

16:19

14-Апр-15

Еще никто не оставлял запись к записи скачать торрент [VIDEO] Новый кулак ярости New Fist Of Fury . Будь первым!

!Обратная связь