Chapter 285 | Télécharger Part 9 | Syndicate Smasher 2017 1080p WEB-DL x264 [MW]

Скачать через торрент [MULT] Джимми Нейтрон: Вундеркинд Мальчик-гений бесплатно русская версия torrent активатор

Статистика раздачи
Размер:  1.16 GB   |    Зарегистрирован:  3 года 3 месяца   |    .torrent скачан:  25 раз   |   
Раздают:  1  
   
загрузка...
 
Автор Сообщение

Galfimbul

avatar Galfimbul


Джимми Нейтрон: Вундеркинд / Мальчик-гений / Jimmy Neutron: Boy Genius«Blasting Into Theatres»

Год выпуска: 2001
Страна: США
Жанр: мультфильм, фантастика, боевик, комедия, приключения, семейный
Продолжительность: 01:22:35
Перевод №1: Профессиональный (дублированный) - CTC
Перевод №2: Профессиональный (двухголосый, закадровый) - Премьер Мультимедиа | VHS Hi-Fi
Перевод №3: Одноголосый (закадровый) - Пётр Иващенко / Гланц
Cубтитры: нет
Режиссер: Джон А. Дэвис / John A. Davis
Роли озвучивали: Меган Кэвэна / Megan Cavanagh (Judy Neutron / VOX), Марк ДеКарло / Mark DeCarlo (Hugh Neutron / Pilot / Arena Guard), Деби Дерриберри / Debi Derryberry (James «Jimmy» Isaac Neutron), Джеффри Гарсиа / Jeffrey Garcia (Sheen Estevez), Боб Гоен / Bob Goen (Newscaster), Мэри Харт / Mary Hart (Newscaster) и другие .
Описание: [i]Пришельцы решили совершить массированный налет на мирный и благополучный Ретровилль! В то время, как Джимми развлекался в луна-парке со своими друзьями, инопланетяне обрушились с небес, похитив при этом родителей всех детишек!
[b]Доп. информация
:

Качество: WEB-DLRip / [url=...4910143]WEB-DL 720p[/url]
Формат: MP4
Видео кодек: H.264
Аудио кодек: AAC
Видео: 960x544 AR:16/9 1614 kbps, 23.976 fps
Аудио №1: 2 ch, 48 kHz, 128 kbps [Dub] CTC
Аудио №2: 2 ch, 48 kHz, 128 kbps [DVO] Премьер Мультимедиа | VHS Hi-Fi
Аудио №3: 2 ch, 48 kHz, 128 kbps [VO] Пётр Иващенко / Гланц
...last pass...

x264.exe: --pass 2 --bitrate 1614 --preset medium --profile high --level 4.1 --ref 8 --aq-strength 0.7 --deblock -3:-3 --merange 24 --no-chroma-me --direct auto --b-adapt 2 --trellis 2 --no-fast-pskip --no-dct-decimate --psy-rd 1.00:0.15 --subme 9 --me umh --min-keyint 25 --keyint 240 --colorprim bt709 --transfer bt709 --colormatrix bt709 --sar 1:1 --stats "J:\Jimmy.Neutron.Boy.Genius.2001.720p.WEB-DL-rutracker.xfiles.log" --output "J:\Jimmy.Neutron.Boy.Genius.2001.720p.WEB-DL-rutracker.xfiles.mp4" "J:\Temp\0085.avs"

avs [info]: 960x544p 1:1 @ 2997/125 fps (cfr)
x264 [info]: using SAR=1/1
x264 [info]: using cpu capabilities: MMX2 SSE2Fast SSSE3 SSE4.2 LZCNT
x264 [info]: profile High, level 4.1

x264 [info]: frame I:1296 Avg QP:17.31 size: 61032
x264 [info]: frame P:34752 Avg QP:19.87 size: 16742
x264 [info]: frame B:82751 Avg QP:23.99 size: 4092
x264 [info]: consecutive B-frames: 3.6% 7.9% 8.0% 80.5%
x264 [info]: mb I I16..4: 12.1% 65.6% 22.3%
x264 [info]: mb P I16..4: 4.8% 11.3% 1.6% P16..4: 43.6% 17.6% 11.2% 0.0% 0.0% skip:10.0%
x264 [info]: mb B I16..4: 0.4% 1.3% 0.2% B16..8: 31.8% 6.0% 1.3% direct: 3.6% skip:55.3% L0:38.0% L1:48.5% BI:13.5%
x264 [info]: 8x8 transform intra:64.6% inter:62.2%
x264 [info]: direct mvs spatial:95.6% temporal:4.4%
x264 [info]: coded y,uvDC,uvAC intra: 63.6% 79.8% 48.4% inter: 15.6% 22.3% 8.1%
x264 [info]: i16 v,h,dc,p: 25% 25% 10% 40%
x264 [info]: i8 v,h,dc,ddl,ddr,vr,hd,vl,hu: 10% 13% 7% 8% 12% 12% 14% 11% 14%
x264 [info]: i4 v,h,dc,ddl,ddr,vr,hd,vl,hu: 11% 13% 5% 8% 14% 13% 14% 10% 13%
x264 [info]: i8c dc,h,v,p: 36% 27% 18% 19%
x264 [info]: Weighted P-Frames: Y:3.8% UV:2.4%
x264 [info]: ref P L0: 57.4% 9.4% 15.6% 4.9% 4.1% 3.2% 3.1% 1.9% 0.3% 0.0%
x264 [info]: ref B L0: 81.8% 8.6% 4.3% 2.0% 1.5% 1.1% 0.6%
x264 [info]: ref B L1: 96.0% 4.0%
x264 [info]: kb/s:1613.79

x264 [total]: encoded 118799 frames, 11.58 fps, 1613.79 kb/s
GeneralComplete name : J:\Torrents\Jimmy.Neutron.Boy.Genius.2001.WEB-DLRip.x264.960x.rip by Frost O.S.mp4Format : MPEG-4Format profile : Base MediaCodec ID : isomFile size : 1.16 GiBDuration : 1h 22mnOverall bit rate mode : VariableOverall bit rate : 2 014 KbpsMovie name : Jimmy Neutron Boy Genius 2001 WEB-DLRip x264 960x rip by Frost O SPerformer : Джон А. Дэвис / John A. DavisGenre : AnimationContentType : Short FilmRecorded date : 9 декабря 2001Encoded date : UTC 2015-04-11 16:54:47Tagged date : UTC 2015-04-11 16:57:46Writing application : MkvToMp4 version: 0.224 (x64)Cover : YesComment : Frost O.SLongDescription : Пришельцы решили совершить массированный налет на мирный и благополучный Ретровилль! В то время, как Джимми развлекался в луна-парке со своими друзьями, инопланетяне обрушились с небес, похитив при этом родителей всех детишек! Жизнь без строгих пап и мам, поначалу казавшаяся раем, стала совершенно невыносимой и тоскливой. Отважный Джимми Нейтрон решает спасти любимых родителей из инопланетного плена! Вместе со своей верной собакой-киборгом мальчик-гений создает эскадру космических кораблей, на которой он, вместе с осиротевшими ребятишками Ретровилля, отправится в межгалактический поход освобождать родителей!ContentRating : mpaa|G|100|iTunMOVI : <?xml version="1.0" encoding="UTF-8"?> / <!DOCTYPE plist PUBLIC "-//Apple//DTD PLIST 1.0//EN" "http://www.apple.com/DTDs/PropertyList-1.0.dtd"> / <plist version="1.0"> / <dict> / <key>cast</key> / <array> / <dict> / <key>name</key> / <string>Меган Кэвэна / Megan Cavanagh (Judy Neutron / VOX)</string> / </dict> / <dict> / <key>name</key> / <string>Марк ДеКарло / Mark DeCarlo (Hugh Neutron / Pilot / Arena Guard)</string> / </dict> / <dict> / <key>name</key> / <string>Деби Дерриберри / Debi Derryberry (James «Jimmy» Isaac Neutron)</string> / </dict> / <dict> / <key>name</key> / <string>Джеффри Гарсиа / Jeffrey Garcia (Sheen Estevez)</string> / </dict> / <dict> / <key>name</key> / <string>Боб Гоен / Bob Goen (Newscaster)</string> / </dict> / <dict> / <key>name</key> / <string>Мэри Харт / Mary Hart (Newscaster)</string> / </dict> / </array> / <key>directors</key> / <array> / <dict> / <key>name</key> / <string>Джон А. Дэвис</string> / </dict> / </array> / <key>producers</key> / <array> / <dict> / <key>name</key> / <string>Джон А. Дэвис</string> / </dict> / <dict> / <key>name</key> / <string>Элби Хехт</string> / </dict> / <dict> / <key>name</key> / <string>Стив Одекерк</string> / </dict> / <dict> / <key>name</key> / <string>Кит Алком</string> / </dict> / <dict> / <key>name</key> / <string>Пол Маршал</string> / </dict> / <dict> / <key>name</key> / <string>Джулия Пистор</string> / </dict> / <dict> / <key>name</key> / <string>Джина Шэй</string> / </dict> / <dict> / <key>name</key> / <string></string> / </dict> / </array> / <key>screenwriters</key> / <array> / <dict> / <key>name</key> / <string>Джон А. Дэвис</string> / </dict> / <dict> / <key>name</key> / <string>Стив Одекерк</string> / </dict> / <dict> / <key>name</key> / <string>Дэвид Н. Уайсс</string> / </dict> / <dict> / <key>name</key> / <string>Дж. Дэвид Стем</string> / </dict> / <dict> / <key>name</key> / <string>Дэн Шнайдер</string> / </dict> / </array> / </dict> / </plist>

VideoID : 1Format : AVCFormat/Info : Advanced Video CodecFormat profile : H[email protected] settings, CABAC : YesFormat settings, ReFrames : 8 framesCodec ID : avc1Codec ID/Info : Advanced Video CodingDuration : 1h 22mnBit rate : 1 614 KbpsMaximum bit rate : 7 077 KbpsWidth : 960 pixelsHeight : 544 pixelsDisplay aspect ratio : 16:9Frame rate mode : ConstantFrame rate : 23.976 fpsColor space : YUVChroma subsampling : 4:2:0Bit depth : 8 bitsScan type : ProgressiveBits/(Pixel*Frame) : 0.129Stream size : 953 MiB (80%)Writing library : x264 core 130 r2273 b3065e6Encoding settings : cabac=1 / ref=8 / deblock=1:-3:-3 / analyse=0x3:0x113 / me=umh / subme=9 / psy=1 / psy_rd=1.00:0.15 / mixed_ref=1 / me_range=24 / chroma_me=0 / trellis=2 / 8x8dct=1 / cqm=0 / deadzone=21,11 / fast_pskip=0 / chroma_qp_offset=-3 / threads=3 / lookahead_threads=1 / sliced_threads=0 / nr=0 / decimate=0 / interlaced=0 / bluray_compat=0 / constrained_intra=0 / bframes=3 / b_pyramid=2 / b_adapt=2 / b_bias=0 / direct=3 / weightb=1 / open_gop=0 / weightp=2 / keyint=240 / keyint_min=25 / scenecut=40 / intra_refresh=0 / rc_lookahead=40 / rc=2pass / mbtree=1 / bitrate=1614 / ratetol=1.0 / qcomp=0.60 / qpmin=0 / qpmax=69 / qpstep=4 / cplxblur=20.0 / qblur=0.5 / ip_ratio=1.40 / aq=1:0.70Language : EnglishEncoded date : UTC 2015-04-11 16:54:47Tagged date : UTC 2015-04-11 16:55:50Color primaries : BT.709Transfer characteristics : BT.709Matrix coefficients : BT.709

Audio #1ID : 2Format : AACFormat/Info : Advanced Audio CodecFormat profile : LCCodec ID : 40Duration : 1h 22mnBit rate mode : VariableBit rate : 128 KbpsMaximum bit rate : 132 KbpsChannel(s) : 2 channelsChannel positions : Front: L RSampling rate : 48.0 KHzCompression mode : LossyStream size : 75.6 MiB (6%)Title : [Dub]_CTCLanguage : RussianEncoded date : UTC 2015-04-11 16:55:21Tagged date : UTC 2015-04-11 16:55:50

Audio #2ID : 3Format : AACFormat/Info : Advanced Audio CodecFormat profile : LCCodec ID : 40Duration : 1h 22mnBit rate mode : VariableBit rate : 128 KbpsMaximum bit rate : 135 KbpsChannel(s) : 2 channelsChannel positions : Front: L RSampling rate : 48.0 KHzCompression mode : LossyStream size : 75.6 MiB (6%)Title : [DVO] Priemer Multimedia _ VHS Hi_FiLanguage : RussianEncoded date : UTC 2015-04-11 16:55:23Tagged date : UTC 2015-04-11 16:55:50

Audio #3ID : 4Format : AACFormat/Info : Advanced Audio CodecFormat profile : LCCodec ID : 40Duration : 1h 22mnBit rate mode : VariableBit rate : 128 KbpsMaximum bit rate : 135 KbpsChannel(s) : 2 channelsChannel positions : Front: L RSampling rate : 48.0 KHzCompression mode : LossyStream size : 75.6 MiB (6%)Title : [VO] GlanzLanguage : RussianEncoded date : UTC 2015-04-11 16:55:25Tagged date : UTC 2015-04-11 16:55:50


Трекер:  [ 11-Апр-2015 20:00 ]

  

Скачать .torrent

Размер .torrent файла 12 KB


Размер: 1.16 GB
Хэш (hash) релиза: b729df51f463b80142cd8c6ada0f73d80f3b08e0

Еще никто не оставлял запись к записи скачать торрент [MULT] Джимми Нейтрон: Вундеркинд Мальчик-гений . Будь первым!

!Обратная связь