The Trainer Hi sneakers Fenty Puma by Rihanna KGQgOG9vW | Crash Bandicoot N. Sane Trilogy (2018) [Multi6] | Системные программы

Скачать через торрент [MULT] Щенячий патруль PAW Patrol бесплатно русская версия torrent активатор

Статистика раздачи
Размер:  4.35 GB   |    Зарегистрирован:  3 года 3 месяца   |    .torrent скачан:  482 раза   |   
Раздают:  1  
   
загрузка...
 
Автор Сообщение

Galfimbul

avatar Galfimbul


Щенячий патруль
PAW Patrol

Год выпуска: 2013
Страна: США (Nickelodeon Animation Studios)
Жанр: Мультсериал, детский, семейный
Продолжительность: 25 х ~00:23:00
Перевод: Профессиональный (полное дублирование) [SDI Media]
Оригинальная дорожка: Нет
Cубтитры: Нет
Режиссер: Кейт Чепмэн / Keith Chapman
Роли озвучивали: Деван Коэн, Алекс Торн, Кристиан Дистефано, Каллан Холли, Гейдж Манро, Оуэн Мэйсон, Стюарт Ралстон, Тристан Сэмюэл, Дрю Дэвис, Max Calinescu
Описание: Зик Райдер — озорной десятилетний мальчик, талантливый не по годам. Он отлично разбирается в электронике и технике и умело с ней обращается. Его жизнь насыщена и полна бесстрашных приключений. Вместе с шестью веселыми и храбрыми щенятами он создал отважную команду под названием «Щенячий патруль».
Сообща они выполняют спасательные миссии: с удовольствием помогают одинокому котенку, попавшему в беду, или освобождают состав поезда из-под оползня. Любое дело им по плечу. Каждый из щенков команды обладает особым характером и уникальными способностями. Зик и его четвероногие товарищи делают немало благих дел и являются по-настоящему смелыми спасателями.

[url=...PAW%20Patrol]Все раздачи сериала[/url]
Качество: HDTVRip, WEB-DLRip (серии 12, 16, 21) (Рип с [url=...4656990]HDTV 1080i[/url] и [url=...4657118]WEB-DL 720p[/url])
Формат: MP4
Видео кодек: H.264
Аудио кодек: AAC
Видео: 960х536 (16:9), ~1000 Kbps (crf=19), 23.976 fps
Аудио: Русский, 2 ch, 48 kHz, 128 kbps [Dub, SDI Media]
01. Щенки и кота-строфа + Щенки спасают поезд (Pups and the Kitty-tastrophe + Pups Save A Train).
02. Тяф-тяф буги + Щенки в тумане (Pup Pup Boogie + Pups in a Fog).
03. Щенки спасают морских черепах + Щенки и очень большой малыш (Pups Save the Sea Turtles + Pup and the Very Big Baby).
04. Щенки спасают цирк + Ку-ка-ре-ку гав-гав (Pups Save the Circus + Pup A Doodle Do).
05. Гуси в гостях у щенков + Гав-гав и вперед (Pup Pup Goose + Pup Pup and Away).
06. Щенячьи гонки + Щенки тушат пожар (Pups Pit Crew + Pups Fight Fire).
07. Щенки спасают кроликов + Стильный щен (Pups Save the Bunnies + Puptacular).
08. Щенки спасают бухту + Щенки спасают мэра Гудвэй (Pups Save the Bay + Pups Save a Goodway).
09. Щенки встречают Крепыша + Щенки спасают моржа (Pups Get a Rubble + Pups Save a Walrus).
10. Щенки спасают угощения + Щенки спускаются с гор (Pups Save the Treats + Pups Get a Lift).
11. Щенки спасают праздник + Щенки спасают Алекса (Pups Save a Hoedown + Pups Save Alex).
12. Щенки и корабль призрак (Pups and the Ghost Pirate)[b][WEB-DLRip]
13. Щенки спасают школьный день + Щенки зажигают свет (Pups Save a School Day + Pups Turn on the Lights).
14. Щенки спасают купание + Цирковые щенки (Pups Save a Pool Day + Circus Pup Formers).
15. Брызги во все стороны + Сбор урожая (Pups Make a Splash + Pups Fall Festival).
16. Щенки спасают Рождество (Pups Save Christmas) [WEB-DLRip]
17. Щенки на льду + Щенки и снежный монстр (Pups On Ice + Pups and the Snow Monster).
18. Щенки спасают Супер Щена + Щенки спасают робота (Pups Save a Super Pup + Pups Save Ryder's Robot).
19. Обезьяньи хлопоты + Щенки спасают сову (Pups Go All Monkey + Pups Save a Hoot).
20. Щенки спасают летучую мышь + Щенки спасают зубик (Pups Save a Bat + Pups Save a Toof).
21. Щенки спасают пасхальные игры (Pups Save the Easter Egg Hunt) [WEB-DLRip]
22. Щенки и танцы на маяке + Щенки спасают Райдера (Pups and the Lighthouse Boogie + Pups Save Ryder).
23. Большие гонки + Щенки готовят торт (Pups Great Race + Pups Take the Cake).
24. Щенки и бобовый стебель + Щенки спасают палтусов (Pups and the Beanstalk + Pups Save the Turbots).
25. Щенки спасают поход + Щенки и черепаший переполох (Pups Save the Camping Trip + Pups and the Trouble with Turtles).
26. Pups and the Pirate Treasure.[/b]
x264 [info]: frame I:435 Avg QP:14.68 size: 55895
x264 [info]: frame P:11593 Avg QP:18.91 size: 8518
x264 [info]: frame B:21150 Avg QP:23.46 size: 2065

x264 [total]: encoded 33178 frames, 7.87 fps, 963.99 kb/s
General
Complete name : PAW.Patrol.S01.HDTVRip.x264.960x(semen_52-TNC)\[MULT] 01. Pups and the Kitty-tastrophe + Pups Save The Train.HDTVRip.x264.960x(semen_52-TNC).mp4
Format : MPEG-4
Format profile : Base Media
Codec ID : isom
File size : 181 MiB
Duration : 23mn 3s
Overall bit rate mode : Variable
Overall bit rate : 1 100 Kbps
Encoded date : UTC 2014-08-12 15:58:13
Tagged date : UTC 2014-08-12 15:58:28
Writing application : MkvToMp4 version: 0.224 (x64)
Comment : Rip by semen_52-TNC
stik : 9

Video
ID : 1
Format : AVC
Format/Info : Advanced Video Codec
Format profile : [email protected]
Format settings, CABAC : Yes
Format settings, ReFrames : 8 frames
Codec ID : avc1
Codec ID/Info : Advanced Video Coding
Duration : 23mn 3s
Bit rate : 964 Kbps
Maximum bit rate : 4 169 Kbps
Width : 960 pixels
Height : 536 pixels
Display aspect ratio : 16:9
Frame rate mode : Constant
Frame rate : 23.976 fps
Color space : YUV
Chroma subsampling : 4:2:0
Bit depth : 8 bits
Scan type : Progressive
Bits/(Pixel*Frame) : 0.078
Stream size : 159 MiB (88%)
Writing library : x264 core 130 r2273 b3065e6
Encoding settings : cabac=1 / ref=8 / deblock=1:1:1 / analyse=0x3:0x113 / me=umh / subme=9 / psy=1 / psy_rd=0.40:0.00 / mixed_ref=1 / me_range=24 / chroma_me=1 / trellis=2 / 8x8dct=1 / cqm=0 / deadzone=21,11 / fast_pskip=0 / chroma_qp_offset=-2 / threads=6 / lookahead_threads=6 / sliced_threads=0 / nr=0 / decimate=1 / interlaced=0 / bluray_compat=0 / constrained_intra=0 / bframes=3 / b_pyramid=2 / b_adapt=2 / b_bias=0 / direct=1 / weightb=1 / open_gop=0 / weightp=2 / keyint=250 / keyint_min=25 / scenecut=40 / intra_refresh=0 / rc_lookahead=60 / rc=crf / mbtree=1 / crf=19.0 / qcomp=0.60 / qpmin=0 / qpmax=69 / qpstep=4 / ip_ratio=1.40 / aq=1:0.60
Language : English
Encoded date : UTC 2014-08-12 15:58:13
Tagged date : UTC 2014-08-12 15:58:21

Audio
ID : 2
Format : AAC
Format/Info : Advanced Audio Codec
Format profile : LC
Codec ID : 40
Duration : 23mn 3s
Bit rate mode : Variable
Bit rate : 128 Kbps
Maximum bit rate : 150 Kbps
Channel(s) : 2 channels
Channel positions : Front: L R
Sampling rate : 48.0 KHz
Compression mode : Lossy
Stream size : 21.1 MiB (12%)
Title : Dub
Language : Russian
Encoded date : UTC 2014-08-12 15:58:17
Tagged date : UTC 2014-08-12 15:58:21
x264 [info]: frame I:417 Avg QP:14.55 size: 53456
x264 [info]: frame P:11508 Avg QP:18.86 size: 8116
x264 [info]: frame B:20681 Avg QP:23.43 size: 1854

x264 [total]: encoded 32606 frames, 7.82 fps, 906.16 kb/s
General
Complete name : PAW.Patrol.S01.HDTVRip.x264.960x(semen_52-TNC)\[MULT] 18. Pups Save a Super Pup + Pups Save Ryder's Robot.HDTVRip.x264.960x(semen_52-TNC).mp4
Format : MPEG-4
Format profile : Base Media
Codec ID : isom
File size : 169 MiB
Duration : 22mn 40s
Overall bit rate mode : Variable
Overall bit rate : 1 042 Kbps
Movie name : [MULT] 18 Pups Save a Super Pup + Pups Save Ryder's Robot HDTVRip x264 960x(semen_52-TNC)
ContentType : Short Film
Encoded date : UTC 2014-10-09 14:58:26
Tagged date : UTC 2014-10-09 14:58:35
Writing application : MkvToMp4 version: 0.224 (x64)
Comment : Rip by semen_52-TNC

Video
ID : 1
Format : AVC
Format/Info : Advanced Video Codec
Format profile : [email protected]
Format settings, CABAC : Yes
Format settings, ReFrames : 8 frames
Codec ID : avc1
Codec ID/Info : Advanced Video Coding
Duration : 22mn 39s
Bit rate : 906 Kbps
Maximum bit rate : 3 776 Kbps
Width : 960 pixels
Height : 536 pixels
Display aspect ratio : 16:9
Frame rate mode : Constant
Frame rate : 23.976 fps
Color space : YUV
Chroma subsampling : 4:2:0
Bit depth : 8 bits
Scan type : Progressive
Bits/(Pixel*Frame) : 0.073
Stream size : 147 MiB (87%)
Writing library : x264 core 130 r2273 b3065e6
Encoding settings : cabac=1 / ref=8 / deblock=1:1:1 / analyse=0x3:0x113 / me=umh / subme=9 / psy=1 / psy_rd=0.40:0.00 / mixed_ref=1 / me_range=24 / chroma_me=1 / trellis=2 / 8x8dct=1 / cqm=0 / deadzone=21,11 / fast_pskip=0 / chroma_qp_offset=-2 / threads=6 / lookahead_threads=6 / sliced_threads=0 / nr=0 / decimate=1 / interlaced=0 / bluray_compat=0 / constrained_intra=0 / bframes=3 / b_pyramid=2 / b_adapt=2 / b_bias=0 / direct=1 / weightb=1 / open_gop=0 / weightp=2 / keyint=250 / keyint_min=25 / scenecut=40 / intra_refresh=0 / rc_lookahead=60 / rc=crf / mbtree=1 / crf=19.0 / qcomp=0.60 / qpmin=0 / qpmax=69 / qpstep=4 / ip_ratio=1.40 / aq=1:0.60
Language : English
Encoded date : UTC 2014-10-09 14:58:26
Tagged date : UTC 2014-10-09 14:58:31

Audio
ID : 2
Format : AAC
Format/Info : Advanced Audio Codec
Format profile : LC
Codec ID : 40
Duration : 22mn 40s
Bit rate mode : Variable
Bit rate : 128 Kbps
Maximum bit rate : 161 Kbps
Channel(s) : 2 channels
Channel positions : Front: L R
Sampling rate : 48.0 KHz
Compression mode : Lossy
Stream size : 20.8 MiB (12%)
Title : Dub
Language : Russian
Encoded date : UTC 2014-10-09 14:58:29
Tagged date : UTC 2014-10-09 14:58:31
x264 [info]: frame I:373 Avg QP:14.07 size: 60161
x264 [info]: frame P:11735 Avg QP:18.53 size: 9004
x264 [info]: frame B:21487 Avg QP:23.61 size: 2079

x264 [total]: encoded 33595 frames, 15.21 fps, 986.44 kb/s
General
Complete name : PAW.Patrol.S01.HDTVRip.x264.960x(semen_52-TNC)\[MULT] 21. Pups Save the Easter Egg Hunt.WEB-DLRip.x264.960x(semen_52-TNC).mp4
Format : MPEG-4
Format profile : Base Media
Codec ID : isom
File size : 188 MiB
Duration : 23mn 21s
Overall bit rate mode : Variable
Overall bit rate : 1 123 Kbps
ContentType : Short Film
Encoded date : UTC 2015-04-11 02:58:43
Tagged date : UTC 2015-04-11 02:58:54
Writing application : MkvToMp4 version: 0.224 (x64)
Comment : Rip by semen_52-TNC

Video
ID : 1
Format : AVC
Format/Info : Advanced Video Codec
Format profile : [email protected]
Format settings, CABAC : Yes
Format settings, ReFrames : 8 frames
Codec ID : avc1
Codec ID/Info : Advanced Video Coding
Duration : 23mn 21s
Bit rate : 986 Kbps
Maximum bit rate : 4 059 Kbps
Width : 960 pixels
Height : 536 pixels
Display aspect ratio : 16:9
Frame rate mode : Constant
Frame rate : 23.976 fps
Color space : YUV
Chroma subsampling : 4:2:0
Bit depth : 8 bits
Scan type : Progressive
Bits/(Pixel*Frame) : 0.080
Stream size : 165 MiB (88%)
Writing library : x264 core 130 r2273 b3065e6
Encoding settings : cabac=1 / ref=8 / deblock=1:1:1 / analyse=0x3:0x113 / me=esa / subme=9 / psy=1 / psy_rd=0.40:0.00 / mixed_ref=1 / me_range=32 / chroma_me=1 / trellis=2 / 8x8dct=1 / cqm=0 / deadzone=21,11 / fast_pskip=0 / chroma_qp_offset=-2 / threads=6 / lookahead_threads=6 / sliced_threads=0 / nr=0 / decimate=1 / interlaced=0 / bluray_compat=0 / constrained_intra=0 / bframes=3 / b_pyramid=2 / b_adapt=2 / b_bias=0 / direct=1 / weightb=1 / open_gop=0 / weightp=2 / keyint=250 / keyint_min=25 / scenecut=40 / intra_refresh=0 / rc_lookahead=60 / rc=crf / mbtree=1 / crf=19.0 / qcomp=0.60 / qpmin=0 / qpmax=69 / qpstep=4 / ip_ratio=1.40 / aq=1:0.60
Language : English
Encoded date : UTC 2015-04-11 02:58:43
Tagged date : UTC 2015-04-11 02:58:49
Color primaries : BT.709
Transfer characteristics : BT.709
Matrix coefficients : BT.709
Color range : Limited

Audio
ID : 2
Format : AAC
Format/Info : Advanced Audio Codec
Format profile : LC
Codec ID : 40
Duration : 23mn 21s
Bit rate mode : Variable
Bit rate : 128 Kbps
Maximum bit rate : 131 Kbps
Channel(s) : 2 channels
Channel positions : Front: L R
Sampling rate : 48.0 KHz
Compression mode : Lossy
Stream size : 21.4 MiB (11%)
Title : Dub / Dub
Language : Russian
Encoded date : UTC 2015-04-11 02:58:47
Tagged date : UTC 2015-04-11 02:58:49
Внимание! Раздача ведётся путём добавления новых серий; при каждом добавлении создётся новый торрент. Чтобы начать докачку новой серии, пользователям необходимо сделать следующее:
(1) остановить скачивание,
(2) удалить старый торрент у себя из клиента (старые серии удалять не надо),
(3) скачать новый торрент и запустить его у себя в клиенте вместо старого, при этом указать клиенту путь в старую папку куда и должно происходить скачивание новых серий.
Ваш клиент при этом должен произвести хеширование (проверку) старой папки (если не производит сам - помогите ему сделать это), и будет докачивать только те серии которых у вас ещё нет. Старые серии при этом не удаляются, а продолжают раздаваться!
Eсли вы уже удалили старые серии, то предотвратить повторную закачку старых серий можно, отжав галочку в соответсвующих местах при запуске нового торрента. По возможности, желательно не удалять старые серии как можно дольше чтобы релизёр не столько продолжал раздавать старые серии, а смог сконцентрироваться на новых
05.10.2014. Добавлены серии 18-20, 22-25
09.10.2014. Заменены серии 18-20, 22-25 с другого исходника без битых кадров. Причина замены серий 18-20, 22-25 с другого исходника http://screenshotcomparison.com/comparison/94948
11.04.2015. Добавлены серии 12, 16, 21. Исходник [url=...4657118][b]WEB-DL 720p[/url][/b]
Статистика раздачи до обновления
Размер: 3.79 GB | Зарегистрирован: 6 месяцев | .torrent скачан: 4725 раз


Трекер:  [ 11-Апр-2015 06:30 ]

  

Скачать .torrent

Размер .torrent файла 25 KB


Размер: 4.35 GB
Хэш (hash) релиза: 66329dd84e893e2013dce8dde63a5a558ac3b9bc

Еще никто не оставлял запись к записи скачать торрент [MULT] Щенячий патруль PAW Patrol . Будь первым!

!Обратная связь