Шесть / Шестой отряд / Six [02x01-06 из 10] (2018) WEB-DLRip | Gears Media | Biograficzne | AAct 3 8 5 Portable [CracksNow]

Скачать через торрент [SERIAL] Защита свидетелей Сезон: 1 бесплатно русская версия torrent активатор

Статистика раздачи
Размер:  2.67 GB   |    Зарегистрирован:  3 года 3 месяца   |    .torrent скачан:  30 раз   |   
Раздают:  1  
   
загрузка...
 
Автор Сообщение

Galfimbul

avatar Galfimbul


Защита свидетелей

Страна: Россия, Фаворит фильм
Жанр: детектив
Год выпуска: 2011
Продолжительность: 12х ~00:49:00

Перевод: не требуется
Субтитры: нет
Оригинальная аудиодорожка: русская

Режиссер: Влад Фурман, Алексей Лебедев
В ролях: Светлана Кожемякина, Сергей Пускепалис, Дмитрий Щербина, Наталья Круглова, Андрей Смоляков, Сергей Русскин, Амаду Мамадаков, Максим Лагашкин, Дмитрий Поднозов, Аркадий Коваль, Анна Пескова, Владимир Кузнецов (VIII), Татьяна Колганова, Владимир Стеклов, Кирилл Полухин, Роман Агеев,Константин Воробьёв, Мария Куликова, Денис Портнов, Михаил Сидаш, Георгий Корольчук, Владислав Резник, Галина Сабурова, Ксения Назарова, Сергей Кошонин, Николай Дик, Юлия Рудина, Семён Фурман, Всеволод Цурило, Валерий Гришко, Пётр Семак, Эвелина Блёданс, Николай Иванов (III), Алёна Старостина,Игорь Гузун, Алексей Девотченко

Описание: В очень непростой для себя период жизни оперуполномоченный «карманного» отдела Иоланта Прилепина переводится в подразделение по обеспечению безопасности лиц, подлежащих государственной защите. Её представления о новой службе как о «казённо-скучной» меняются в первый же день, когда по неосмотрительности новых коллег происходит убийство ключевого свидетеля по делу — лидера преступной группировки Литвина. Пенсионерка, студент, секретарша, судья, бомж — палитра людей, попадающих под опеку оперативной группы, получившей в милицейской среде негласное название «гоблины», пестра и разнообразна. И объединяет их только одно — каждому из них угрожает реальная опасность. Чтобы со всем этим справиться, дюжине «гоблинов» приходится работать и день и ночь. А тут ещё у заместителя начальника по оперативной работе Андрея Мешечко появились небеспочвенные подозрения в том, что в его подразделении завелся «крот».

Доп. информация:
Кинопоиск 5,649/10 (107 votes)
Исходник кинозал
Rip by
Сэмпл
Качество видео: DVDRip
Формат: MP4

Видео: MPEG-4, 640x364, 16:9, 501 Кбит/сек, 25,000 кадр/сек
Аудио: AAC, 128 Кбит/сек, 48,0 КГц, 2 канала
Общее
Полное имя : F:\Torrent-G\Zaschita.svidetelei\Zaschita.svidetelei.s01e01.by.GalVid.mp4
Формат : MPEG-4
Профиль формата : Base Media
Идентификатор кодека : isom
Размер файла : 226 Мбайт
Продолжительность : 49 м.
Общий поток : 633 Кбит/сек
Программа кодирования : Lavf52.94.0

Видео
Идентификатор : 1
Формат : MPEG-4 Visual
Профиль формата : [email protected]
Параметр BVOP формата : Нет
Параметр QPel формата : Нет
Параметр GMC формата : Без точки перехода
Параметр матрицы формата : Default (H.263)
Идентификатор кодека : 20
Продолжительность : 49 м.
Вид битрейта : Переменный
Битрейт : 501 Кбит/сек
Ширина : 640 пикс.
Высота : 364 пикс.
Соотношение сторон : 16:9
Режим частоты кадров : Переменный
Частота кадров : 25,000 кадр/сек
Минимальная частота кадров : 12,500 кадр/сек
Максимальная частота кадров : 25,000 кадр/сек
Цветовое пространство : YUV
Подвыборка цветности : 4:2:0
Битовая глубина : 8 бит
Тип развёртки : Прогрессивная
Метод сжатия : С потерями
Бит/(Пиксели*Кадры) : 0.086
Размер потока : 179 Мбайт (79%)
Библиотека кодирования : Lavc52.108.0

Аудио
Идентификатор : 2
Формат : AAC
Формат/Информация : Advanced Audio Codec
Профиль формата : LC
Идентификатор кодека : 40
Продолжительность : 49 м.
Вид битрейта : Переменный
Битрейт : 128 Кбит/сек
Канал(ы) : 2 канала(ов)
Расположение каналов : Front: L R
Частота : 48,0 КГц
Метод сжатия : С потерями
Размер потока : 45,7 Мбайт (20%)


Трекер:  [ 09-Апр-2015 13:30 ]

  

Скачать .torrent

Размер .torrent файла 14 KB


Размер: 2.67 GB
Хэш (hash) релиза: f04fd86be4b3c74395567500e87e903dc145b9f2

Еще никто не оставлял запись к записи скачать торрент [SERIAL] Защита свидетелей Сезон: 1 . Будь первым!

!Обратная связь