marc van
Shifters' Captive:Magical Menages 1

Скачать через торрент [MULT] Аватар: Легенда о Корре The Legend of Korra бесплатно русская версия torrent активатор

Статистика раздачи
Размер:  2.34 GB   |    Зарегистрирован:  3 года   |    .torrent скачан:  58 раз   |   
Раздают:  1  
   
загрузка...
 
Автор Сообщение

Galfimbul

avatar Galfimbul


Аватар: Легенда о Корре / Книга Третья: Перемена
The Legend of Korra

Год выпуска: 2014
Страна: США (Nickelodeon Animation Studios)
Жанр: Мультфильм, фэнтези, боевик, приключения
Продолжительность: 13 х ~00:24:00
Перевод: Профессиональный (полное дублирование) [SDI Media]
Оригинальная дорожка: Нет
Cубтитры: Нет
Режиссер: Майкл Данте Димартино / Michael Dante DiMartino, Брайан Кониецко / Bryan Konietzko
Роли озвучивали: Джанет Вэрни, Дж.К. Симмонс, Ди Брэдли Бейкер, Мария Бэмфорд, Кирнан Шипка, Дарси Роуз Бернс, Лэнс Хенриксен, П.Дж. Бирн, Дэвид Фаустино, Данте Баско
Роли дублировали: Ольга Шорохова, Александр Гаврилин, Валерий Сторожик, Владимир Антоник, Мария Овчинникова, Никита Прозоровский, Ольга Сирина
Описание: Действие сериала разворачивается примерно через 70 лет после победы аватара Аанга над Лордом Огня в последней серии мультсериала «Аватар: Легенда об Аанге». Корра, уже овладевшая магией воды, земли и огня должна обучиться последнему элементу — магии воздуха. В этом ей может помочь только сын Аанга и Катары — Тензин. Корра живёт в «Республиканском городе». Республиканский город — это место, где вместе живут люди всех наций. Героям мультсериала предстоит борьба с преступностью и с готовящимся восстанием против магов.

[url=...287&nm=%D0%9B%D0%B5%D0%B3%D0%B5%D0%BD%D0%B4%D0%B0%20%D0%BE%20%D0%9A%D0%BE%D1%80%D1%80%D0%B5]Все раздачи сериала[/url]
Качество: WEB-DLRip (Рип с [url=...4914583]WEB-DL 1080p[/url])
Формат: MP4
Видео кодек: H.264
Аудио кодек: AAC
Видео: 960х536 (16:9), ~1000 Kbps (crf=18), 23.976 fps
Аудио: Русский, 2 ch, 48 kHz, 128 kbps [Dub, SDI Media]
Для постановки боёв в команду создателей были приглашены специалисты по смешанным единоборствам.
Глава 1: После стольких лет / After All These Years
Глава 2: Одинокая Корра / Korra Alone
Глава 3: Коронация / The Coronation
Глава 4: Призвание / The Calling
Глава 5: Враг у ворот / Enemy at the Gates
Глава 6: Битва за Заофу / Battle of Zaofu
Глава 7: Воссоединение / Reunion
Глава 8: Воспоминания / Remembrances
Глава 9: По ту сторону зарослей / Beyond the Wilds
Глава 10: Операция Бейфонг / Operation Beifong
Глава 11: Гамбит Кувиры / Kuvira's Gambit
Глава 12: День Колосса / Day of the Colossus
Глава 13: Последняя битва / The Last Stand
x264 [info]: frame I:325 Avg QP:12.80 size: 78682
x264 [info]: frame P:9642 Avg QP:16.50 size: 10983
x264 [info]: frame B:22936 Avg QP:20.87 size: 1774

x264 [total]: encoded 32903 frames, 12.68 fps, 1003.65 kb/s
General
Complete name : The.Legend.of.Korra.S04.2014.WEB-DLRip.x264.960x(semen_52-TNC)\[MULT] The.Legend.of.Korra.S04E01.After.All.These.Years.WEB-DLRip.x264.960x(semen_52-TNC).mp4
Format : MPEG-4
Format profile : Base Media
Codec ID : isom
File size : 186 MiB
Duration : 22mn 52s
Overall bit rate mode : Variable
Overall bit rate : 1 140 Kbps
Collection : [MULT] The Legend of Korra
Season : 4
Part : 1
ContentType : TV Show
Encoded date : UTC 2015-04-08 17:35:44
Tagged date : UTC 2015-04-08 17:37:01
Writing application : MkvToMp4 version: 0.224 (x64)
Comment : Rip by semen_52-TNC
Title/Sort : [MULT] The Legend of Korra

Video
ID : 1
Format : AVC
Format/Info : Advanced Video Codec
Format profile : [email protected]
Format settings, CABAC : Yes
Format settings, ReFrames : 8 frames
Codec ID : avc1
Codec ID/Info : Advanced Video Coding
Duration : 22mn 52s
Bit rate : 1 004 Kbps
Maximum bit rate : 4 687 Kbps
Width : 960 pixels
Height : 536 pixels
Display aspect ratio : 16:9
Frame rate mode : Constant
Frame rate : 23.976 fps
Color space : YUV
Chroma subsampling : 4:2:0
Bit depth : 8 bits
Scan type : Progressive
Bits/(Pixel*Frame) : 0.081
Stream size : 164 MiB (88%)
Writing library : x264 core 130 r2273 b3065e6
Encoding settings : cabac=1 / ref=8 / deblock=1:-2:-1 / analyse=0x3:0x113 / me=esa / subme=9 / psy=1 / psy_rd=0.90:0.00 / mixed_ref=1 / me_range=32 / chroma_me=1 / trellis=2 / 8x8dct=1 / cqm=0 / deadzone=21,11 / fast_pskip=0 / chroma_qp_offset=-2 / threads=6 / lookahead_threads=6 / sliced_threads=0 / nr=0 / decimate=1 / interlaced=0 / bluray_compat=0 / constrained_intra=0 / bframes=3 / b_pyramid=2 / b_adapt=2 / b_bias=0 / direct=1 / weightb=1 / open_gop=0 / weightp=2 / keyint=250 / keyint_min=25 / scenecut=40 / intra_refresh=0 / rc_lookahead=60 / rc=crf / mbtree=1 / crf=18.0 / qcomp=0.60 / qpmin=0 / qpmax=69 / qpstep=4 / ip_ratio=1.40 / aq=1:0.90
Language : English
Encoded date : UTC 2015-04-08 17:35:44
Tagged date : UTC 2015-04-08 17:36:39

Audio
ID : 2
Format : AAC
Format/Info : Advanced Audio Codec
Format profile : LC
Codec ID : 40
Duration : 22mn 52s
Bit rate mode : Variable
Bit rate : 128 Kbps
Maximum bit rate : 132 Kbps
Channel(s) : 2 channels
Channel positions : Front: L R
Sampling rate : 48.0 KHz
Compression mode : Lossy
Stream size : 20.9 MiB (11%)
Title : Dub / Dub
Language : Russian
Encoded date : UTC 2015-04-08 17:36:11
Tagged date : UTC 2015-04-08 17:36:39


Трекер:  [ 09-Апр-2015 13:00 ]

  

Скачать .torrent

Размер .torrent файла 13 KB


Размер: 2.34 GB
Хэш (hash) релиза: b5e49774db3dea758f340f5d0d407197b07b0126

Еще никто не оставлял запись к записи скачать торрент [MULT] Аватар: Легенда о Корре The Legend of Korra . Будь первым!

!Обратная связь