Any Video Converter Ultimate 6 2 3 + Crack
alternative rock

Скачать через торрент [SERIAL] Цена жизни Сезон: 1 бесплатно русская версия torrent активатор

Статистика раздачи
Размер:  4.05 GB   |    Зарегистрирован:  3 года   |    .torrent скачан:  28 раз   |   
Раздают:  1  
   
загрузка...
 
Автор Сообщение

Galfimbul

avatar Galfimbul


Цена жизни

Страна: Россия, Группа компаний «ВайТ Медиа»
Жанр: детектив
Год выпуска: 2013
Продолжительность: 16х ~00:48:00

Перевод: не требуется
Субтитры: нет
Оригинальная аудиодорожка: русская

Режиссер: Вадим Островский
В ролях: Константин Лавроненко, Алиса Богарт, Грегори-Саид Багов, Михаил Евланов, Алексей Анищенко, Анна Попова, Илья Исаев, Марина Коняшкина, Дмитрий Калистратов, Александр Печенин, Елена Семёнова-Хмурова, Наталья Третьякова, Александр Воробьёв (II), Владимир Ширяев (II), Ксения Баскакова, Юрий Архангельский, Константин Силаков, Сергей Холмогоров, Петр Рабчевский, Александр Шелудько, Илья Варанкин

Описание: Илья Шагин (Константин Лавроненко) по первому образованию врач, преподававший патологическую физиологию будущим медикам. Похоронив жену, которую не удалось спасти во время родов, Шагин решает установить причину трагедии. Однако справедливости не добивается. Напротив, он теряет работу и попадает в тюрьму по сфабрикованному обвинению. В тюрьме Шагин получает второе, юридическое образование. Освободившись досрочно, он решает сменить сферу деятельности и начинает защищать права тех, кто пострадал от халатности, получил трудовые увечья или некачественную помощь.

Доп. информация:
Кинопоиск 6,000/10 (27 votes)
[url=...4599838]Исходник[/url]
Rip by
Сэмпл
Качество видео: WEBRip
Формат: MP4

Видео: MPEG-4, 640x364, 16:9, 600 Кбит/сек, 25,000 кадр/сек
Аудио: AAC, 128 Кбит/сек, 48,0 КГц, 2 канала
Общее
Полное имя : F:\Torrent-G\Cena.Jizni\Cena.Jizni.s01.e01.2013.WEBRip.by.GalVid.mp4
Формат : MPEG-4
Профиль формата : Base Media
Идентификатор кодека : isom
Размер файла : 255 Мбайт
Продолжительность : 48 м.
Общий поток : 733 Кбит/сек
Программа кодирования : Lavf52.94.0

Видео
Идентификатор : 1
Формат : MPEG-4 Visual
Профиль формата : [email protected]
Параметр BVOP формата : Нет
Параметр QPel формата : Нет
Параметр GMC формата : Без точки перехода
Параметр матрицы формата : Default (H.263)
Идентификатор кодека : 20
Продолжительность : 48 м.
Вид битрейта : Переменный
Битрейт : 600 Кбит/сек
Ширина : 640 пикс.
Высота : 364 пикс.
Соотношение сторон : 16:9
Режим частоты кадров : Переменный
Частота кадров : 25,000 кадр/сек
Минимальная частота кадров : 12,500 кадр/сек
Максимальная частота кадров : 25,000 кадр/сек
Цветовое пространство : YUV
Подвыборка цветности : 4:2:0
Битовая глубина : 8 бит
Тип развёртки : Прогрессивная
Метод сжатия : С потерями
Бит/(Пиксели*Кадры) : 0.103
Размер потока : 209 Мбайт (82%)
Библиотека кодирования : Lavc52.108.0

Аудио
Идентификатор : 2
Формат : AAC
Формат/Информация : Advanced Audio Codec
Профиль формата : LC
Идентификатор кодека : 40
Продолжительность : 48 м.
Вид битрейта : Переменный
Битрейт : 128 Кбит/сек
Канал(ы) : 2 канала(ов)
Расположение каналов : Front: L R
Частота : 48,0 КГц
Метод сжатия : С потерями
Размер потока : 44,6 Мбайт (17%)


Трекер:  [ 07-Апр-2015 21:30 ]

  

Скачать .torrent

Размер .torrent файла 22 KB


Размер: 4.05 GB
Хэш (hash) релиза: 752fc2dbf4a8d12aef102ec6977f417ec65cd5ce

Еще никто не оставлял запись к записи скачать торрент [SERIAL] Цена жизни Сезон: 1 . Будь первым!

!Обратная связь