AIC PLUS | http://formaile.com/torrent/627840/ | The Letters of a Portuguese Nun

Скачать через торрент [VIDEO] Джон Уик John Wick бесплатно русская версия torrent активатор

Статистика раздачи
Размер:  1.13 GB   |    Зарегистрирован:  3 года 3 месяца   |    .torrent скачан:  1575 раз   |   
Раздают:  1  
   
загрузка...
 
Автор Сообщение

Galfimbul

avatar Galfimbul


Джон Уик
John Wick

Год выпуска: 2014
Страна: Китай, Канада, США (87Eleven, Company Films, DefyNite Films)
Жанр: Боевик, триллер
Продолжительность: 01:41:12
Перевод 1: Профессиональный (полное дублирование) [от BlueBird]
Перевод 2: Одноголосый (закадровый) [Матвеев] (Внимание!!! Ненормативная лексика)
Оригинальная дорожка: Английский
Cубтитры: Русские отключаемые, форсированные и полные
Режиссер: Дэвид Лейтч / David Leitch, Чад Стахелски / Chad Stahelski
В ролях: Киану Ривз, Микаэл Нюквист, Элфи Оуэн-Аллен, Уиллем Дефо, Дин Уинтерс, Эдрианн Палики, Омер Барнеа, Тоби Мур, Дэниэл Бернхард, Бриджет Мойнэхэн, Джон Легуизамо, Иэн МакШейн, Бриджет Риган, Лэнс Реддик, Кит Джардин, Тейт Флетчер, Кази Таугинас, Александр Фрекей, Томас Садоски, Рэндолл Дак Ким
Описание: Джон Уик на первый взгляд самый обычный среднестатистический американец, который ведет спокойную мирную жизнь. Однако мало кто знает, что в свое время он был наемным убийцей, причем одним из лучших профессионалов в своем деле. После того, как преступник угоняет его любимый «Мустанг», 1969 года выпуска, при этом убив его собаку Дейзи, которая была единственным напоминанием об умершей супруге, Джон вынужден вернуться к своему прошлому. Теперь Уик начинает охоту на человека, который имел неосторожность перейти ему дорогу, и он готов на все, чтобы отомстить ему…

Качество: HDRip (Рип с BDRip 1080p)
Формат: MP4
Видео: AVC, 960x400 (2.40:1), 1206 kbps, 23.976 fps
Аудио 1: Русский, AAC, 2 ch, 48 kHz, 128 kbps [Dub]
Аудио 2: Русский, AAC, 2 ch, 48 kHz, 128 kbps [VO, Матвеев]
Аудио 3: Английский, AAC, 2 ch, 48 kHz, 128 kbps [Original]
Имя Джон Уик было дано главному персонажу сценаристом Дереком Кольстадом в честь его дедушки.
В сценах рукопашного боя можно заметить, что Джон Уик использует приемы дзюдо, а его соперница мисс Перкинс — джиу-джитсу.
Киану Ривз выучил всю сцену сражения в ночном клубе в тот же день, когда она была снята.
По словам Киану Ривза, он сам исполнил 90 процентов своих трюков в фильме.
При встрече с Маркусом у Джона большой зонт. При прощании уже маленький зонт. В следующем кадре — опять большой.
Персонаж Джон Уик также есть в видеоигре Payday 2 (2013). Он был добавлен в игру за два дня до выхода фильма в прокат.
Охранник, который машет Уику на взлетно-посадочной полосе, читает роман Треваньяна (Род Уитакер) «Шибуми». В этом романе описываются события, схожие с сюжетом фильма: ушедший на покой наемный убийца вынужден вновь взяться за свое ремесло. Также история, которую рассказывает Вигго о том, как Уик убил трех людей при помощи карандаша, является отсылкой к роману «Шибуми», герой которого использовал для совершения убийств различные предметы быта.
В сцене финальной драки, когда главный герой и его противник сидят под дождём, можно заметить, что дождь искусственный — капли летят в разном направлении (те, что в кадре слева, летят налево, те что справа — летят направо).
В сцене, когда мисс Перкинс стреляет в героя Уиллема Дефо, можно заметить, что вместо актера падает молодой дублер.
В сцене финальной погони, когда Tahoe сталкивает Dodge Charger с края стены, можно заметить, что у падающего автомобиля отсутствуют трансмиссия, двигатель и карданный вал.
Когда Джон Уик просыпается перед похоронами его жены, его будильник срабатывает в 6 часов утра. Когда он встает в следующих кадрах, то на будильнике уже 10:06. При этом на улице освещение не поменялось.
В Нью-Джерси, когда Джон Уик впервые сталкивается с Иосифом, они оба пользуются заправками с самообслуживанием, которые на самом деле запрещены в этом штате.
В ходе телефонного разговора между Джоном Уиком и Уинстоном перед финальной сценой они оба используют смартфоны, и у каждого из них горят сенсорные экраны во время разговора.
После того, как в дом Джона врывается отряд убийц, он звонит в службу по утилизации трупов и заказывает «столик на 12» (число жертв), хотя на самом деле убитых 13.
x264 [info]: frame I:1317 Avg QP:12.95 size: 84176
x264 [info]: frame P:30935 Avg QP:16.15 size: 18821
x264 [info]: frame B:121289 Avg QP:19.29 size: 3468

x264 [total]: encoded 145602 frames, 7.20 fps, 1206.19 kb/s
General
Complete name : [VIDEO] John Wick.2014.HDRip.x264.960x(semen_52-TNC).mp4
Format : MPEG-4
Format profile : Base Media
Codec ID : isom
File size : 1.13 GiB
Duration : 1h 41mn
Overall bit rate mode : Variable
Overall bit rate : 1 605 Kbps
Movie name : [VIDEO] John Wick 2014 HDRip x264 960x(semen_52-TNC)
ContentType : Short Film
Encoded date : UTC 2015-04-06 15:08:21
Tagged date : UTC 2015-04-06 15:10:34
Writing application : MkvToMp4 version: 0.224 (x64)
Comment : Rip by semen_52-TNC

Video
ID : 1
Format : AVC
Format/Info : Advanced Video Codec
Format profile : [email protected]
Format settings, CABAC : Yes
Format settings, ReFrames : 8 frames
Codec ID : avc1
Codec ID/Info : Advanced Video Coding
Duration : 1h 41mn
Bit rate : 1 206 Kbps
Maximum bit rate : 7 239 Kbps
Width : 960 pixels
Height : 400 pixels
Display aspect ratio : 2.40:1
Frame rate mode : Constant
Frame rate : 23.976 fps
Color space : YUV
Chroma subsampling : 4:2:0
Bit depth : 8 bits
Scan type : Progressive
Bits/(Pixel*Frame) : 0.131
Stream size : 873 MiB (75%)
Writing library : x264 core 130 r2273 b3065e6
Encoding settings : cabac=1 / ref=8 / deblock=1:-3:-3 / analyse=0x3:0x113 / me=esa / subme=9 / psy=1 / psy_rd=0.90:0.15 / mixed_ref=1 / me_range=32 / chroma_me=1 / trellis=2 / 8x8dct=1 / cqm=0 / deadzone=21,11 / fast_pskip=0 / chroma_qp_offset=-3 / threads=12 / lookahead_threads=2 / sliced_threads=0 / nr=0 / decimate=1 / interlaced=0 / bluray_compat=0 / constrained_intra=0 / bframes=8 / b_pyramid=2 / b_adapt=2 / b_bias=0 / direct=1 / weightb=1 / open_gop=0 / weightp=2 / keyint=250 / keyint_min=25 / scenecut=40 / intra_refresh=0 / rc_lookahead=60 / rc=crf / mbtree=1 / crf=18.0 / qcomp=0.60 / qpmin=0 / qpmax=69 / qpstep=4 / ip_ratio=1.40 / aq=1:1.00
Language : English
Encoded date : UTC 2015-04-06 15:08:21
Tagged date : UTC 2015-04-06 15:09:41
Color primaries : BT.709
Transfer characteristics : BT.709
Matrix coefficients : BT.709
Color range : Limited

Audio #1
ID : 2
Format : AAC
Format/Info : Advanced Audio Codec
Format profile : LC
Codec ID : 40
Duration : 1h 41mn
Bit rate mode : Variable
Bit rate : 128 Kbps
Maximum bit rate : 135 Kbps
Channel(s) : 2 channels
Channel positions : Front: L R
Sampling rate : 48.0 KHz
Compression mode : Lossy
Stream size : 92.7 MiB (8%)
Title : Dub / Dub
Language : Russian
Encoded date : UTC 2015-04-06 15:08:42
Tagged date : UTC 2015-04-06 15:09:41

Audio #2
ID : 3
Format : AAC
Format/Info : Advanced Audio Codec
Format profile : LC
Codec ID : 40
Duration : 1h 41mn
Bit rate mode : Variable
Bit rate : 128 Kbps
Maximum bit rate : 135 Kbps
Channel(s) : 2 channels
Channel positions : Front: L R
Sampling rate : 48.0 KHz
Compression mode : Lossy
Stream size : 92.7 MiB (8%)
Title : VO Matveev / VO Matveev
Language : Russian
Encoded date : UTC 2015-04-06 15:09:04
Tagged date : UTC 2015-04-06 15:09:41

Audio #3
ID : 4
Format : AAC
Format/Info : Advanced Audio Codec
Format profile : LC
Codec ID : 40
Duration : 1h 41mn
Bit rate mode : Variable
Bit rate : 128 Kbps
Maximum bit rate : 135 Kbps
Channel(s) : 2 channels
Channel positions : Front: L R
Sampling rate : 48.0 KHz
Compression mode : Lossy
Stream size : 92.7 MiB (8%)
Title : Original / Original
Language : English
Encoded date : UTC 2015-04-06 15:09:23
Tagged date : UTC 2015-04-06 15:09:41

Text #1
ID : 5
Format : Timed Text
Muxing mode : sbtl
Codec ID : tx3g
Duration : 1h 34mn
Bit rate mode : Variable
Bit rate : 43 bps
Stream size : 30.1 KiB (0%)
Title : Forced / Forced
Language : Russian
Encoded date : UTC 2015-04-06 15:09:41
Tagged date : UTC 2015-04-06 15:09:41

Text #2
ID : 6
Format : Timed Text
Muxing mode : sbtl
Codec ID : tx3g
Duration : 1h 25mn
Bit rate mode : Variable
Bit rate : 3 bps
Stream size : 2.16 KiB (0%)
Title : Full / Full
Language : Russian
Encoded date : UTC 2015-04-06 15:09:41
Tagged date : UTC 2015-04-06 15:09:41


Трекер:  [ 06-Апр-2015 20:00 ]

  

Скачать .torrent

Размер .torrent файла 12 KB


Размер: 1.13 GB
Хэш (hash) релиза: e8e8de64dc64fa7af24608f410b38a523dc47f7c

Еще никто не оставлял запись к записи скачать торрент [VIDEO] Джон Уик John Wick . Будь первым!

!Обратная связь