Pictures - All | Mobile Suit Gundam : Iron Blooded Orphans Season 2 Subtitle Indonesia | 252,617 03:43 Bujang Senang Awie Wings

Скачать через торрент [VIDEO] Общак The Drop бесплатно русская версия torrent активатор

Статистика раздачи
Размер:  1.33 GB   |    Зарегистрирован:  3 года 3 месяца   |    .torrent скачан:  44 раза   |   
Раздают:  1  
   
загрузка...
 
Автор Сообщение

Galfimbul

avatar Galfimbul


Общак
The Drop

Год выпуска: 2014
Страна: США (Chernin Entertainment, Fox Searchlight Pictures)
Жанр: Драма, криминал
Продолжительность: 01:46:44
Перевод 1: Профессиональный (полное дублирование)
Перевод 2: Одноголосый (закадровый) [Есарев] (Внимание!!! Ненормативная лексика)
Оригинальная дорожка: Английский
Cубтитры: Русские отключаемые, полные
Режиссер: Михаэль Р. Роскам / Michaël R. Roskam
В ролях: Том Харди, Нуми Рапас, Джеймс Гандольфини, Маттиас Шонартс, Джон Ортис, Элизабет Родригес, Майкл Аронов, Морган Спектор, Майкл Эспер, Росс Бикелл
Описание: Боб Сагиновски оказывается в центре ограбления, из-за расследования которого может всплыть прошлое района, когда друзья, семьи и заклятые враги — все работали вместе, чтобы выжить…

Качество: HDRip (Рип с BDRip 1080p)
Формат: MP4
Видео: AVC, 960x400 (2.40:1), 1391 kbps, 23.976 fps
Аудио 1: Русский, AAC, 2 ch, 48 kHz, 128 kbps [Dub]
Аудио 2: Русский, AAC, 2 ch, 48 kHz, 128 kbps [VO, Есарев]
Аудио 3: Английский, AAC, 2 ch, 48 kHz, 128 kbps [Original]
Сан-Себастьян, 2014 год
Победитель (1):
Приз жюри за лучший сценарий
Номинации (1):
Золотая раковина
Экранизация рассказа американского сценариста Дэнниса Лихейна.
Роль Рокко исполняли три разные собаки, чтобы в фильме собака росла постепенно.
Первоначально на должность режиссера фильма взяли Нила Бёргера, но он покинул проект, чтобы заняться режиссурой фильма «Дивергент» (2014).
Изначально название фильма звучало как «Спасение животных» (Animal Rescue), но в январе 2014 было изменено на «Общак» (The Drop).
Это первый англоязычный фильм режиссера Михаэля Р. Роскама.
x264 [info]: frame I:1317 Avg QP:12.95 size: 84176
x264 [info]: frame P:30935 Avg QP:16.15 size: 18821
x264 [info]: frame B:121289 Avg QP:19.29 size: 3468

x264 [total]: encoded 153541 frames, 6.81 fps, 1391.28 kb/s
General
Complete name : [VIDEO] The.Drop.2014.HDRip.x264.960x(semen_52-TNC).mp4
Format : MPEG-4
Format profile : Base Media
Codec ID : isom
File size : 1.33 GiB
Duration : 1h 46mn
Overall bit rate mode : Variable
Overall bit rate : 1 790 Kbps
Movie name : [VIDEO] The Drop 2014 HDRip x264 960x(semen_52-TNC)
ContentType : Short Film
Encoded date : UTC 2015-04-06 15:14:04
Tagged date : UTC 2015-04-06 15:16:21
Writing application : MkvToMp4 version: 0.224 (x64)
Comment : Rip by semen_52-TNC

Video
ID : 1
Format : AVC
Format/Info : Advanced Video Codec
Format profile : [email protected]
Format settings, CABAC : Yes
Format settings, ReFrames : 8 frames
Codec ID : avc1
Codec ID/Info : Advanced Video Coding
Duration : 1h 46mn
Bit rate : 1 391 Kbps
Maximum bit rate : 7 815 Kbps
Width : 960 pixels
Height : 400 pixels
Display aspect ratio : 2.40:1
Frame rate mode : Constant
Frame rate : 23.976 fps
Color space : YUV
Chroma subsampling : 4:2:0
Bit depth : 8 bits
Scan type : Progressive
Bits/(Pixel*Frame) : 0.151
Stream size : 1.04 GiB (78%)
Writing library : x264 core 130 r2273 b3065e6
Encoding settings : cabac=1 / ref=8 / deblock=1:-3:-2 / analyse=0x3:0x113 / me=esa / subme=9 / psy=1 / psy_rd=1.00:0.15 / mixed_ref=1 / me_range=32 / chroma_me=1 / trellis=2 / 8x8dct=1 / cqm=0 / deadzone=21,11 / fast_pskip=0 / chroma_qp_offset=-3 / threads=12 / lookahead_threads=2 / sliced_threads=0 / nr=0 / decimate=1 / interlaced=0 / bluray_compat=0 / constrained_intra=0 / bframes=9 / b_pyramid=2 / b_adapt=2 / b_bias=0 / direct=1 / weightb=1 / open_gop=0 / weightp=2 / keyint=250 / keyint_min=25 / scenecut=40 / intra_refresh=0 / rc_lookahead=60 / rc=crf / mbtree=1 / crf=17.0 / qcomp=0.60 / qpmin=0 / qpmax=69 / qpstep=4 / ip_ratio=1.40 / aq=1:1.00
Language : English
Encoded date : UTC 2015-04-06 15:14:04
Tagged date : UTC 2015-04-06 15:15:22
Color primaries : BT.709
Transfer characteristics : BT.709
Matrix coefficients : BT.709
Color range : Limited

Audio #1
ID : 2
Format : AAC
Format/Info : Advanced Audio Codec
Format profile : LC
Codec ID : 40
Duration : 1h 46mn
Bit rate mode : Variable
Bit rate : 128 Kbps
Maximum bit rate : 135 Kbps
Channel(s) : 2 channels
Channel positions : Front: L R
Sampling rate : 48.0 KHz
Compression mode : Lossy
Stream size : 97.7 MiB (7%)
Title : Dub / Dub
Language : Russian
Encoded date : UTC 2015-04-06 15:14:28
Tagged date : UTC 2015-04-06 15:15:22

Audio #2
ID : 3
Format : AAC
Format/Info : Advanced Audio Codec
Format profile : LC
Codec ID : 40
Duration : 1h 46mn
Bit rate mode : Variable
Bit rate : 128 Kbps
Maximum bit rate : 133 Kbps
Channel(s) : 2 channels
Channel positions : Front: L R
Sampling rate : 48.0 KHz
Compression mode : Lossy
Stream size : 97.7 MiB (7%)
Title : AVO Esarev / AVO Esarev
Language : Russian
Encoded date : UTC 2015-04-06 15:14:49
Tagged date : UTC 2015-04-06 15:15:22

Audio #3
ID : 4
Format : AAC
Format/Info : Advanced Audio Codec
Format profile : LC
Codec ID : 40
Duration : 1h 46mn
Bit rate mode : Variable
Bit rate : 128 Kbps
Maximum bit rate : 133 Kbps
Channel(s) : 2 channels
Channel positions : Front: L R
Sampling rate : 48.0 KHz
Compression mode : Lossy
Stream size : 97.7 MiB (7%)
Title : Original / Original
Language : English
Encoded date : UTC 2015-04-06 15:15:06
Tagged date : UTC 2015-04-06 15:15:22

Text
ID : 5
Format : Timed Text
Muxing mode : sbtl
Codec ID : tx3g
Duration : 1h 42mn
Bit rate mode : Variable
Bit rate : 89 bps
Stream size : 67.1 KiB (0%)
Title : Full / Full
Language : Russian
Encoded date : UTC 2015-04-06 15:15:22
Tagged date : UTC 2015-04-06 15:15:22


Трекер:  [ 06-Апр-2015 19:30 ]

  

Скачать .torrent

Размер .torrent файла 14 KB


Размер: 1.33 GB
Хэш (hash) релиза: 95bf0f895289e463e6eedddef38ac5c08c9c9e1d

Еще никто не оставлял запись к записи скачать торрент [VIDEO] Общак The Drop . Будь первым!

!Обратная связь