Animation
HD The Dark Tower (2017)

Скачать через торрент [VIDEO] Детка Laggies бесплатно русская версия torrent активатор

Статистика раздачи
Размер:  1010 MB   |    Зарегистрирован:  3 года   |    .torrent скачан:  50 раз   |   
Раздают:  1  
   
загрузка...
 
Автор Сообщение

Galfimbul

avatar Galfimbul


Детка
Laggies

Год выпуска: 2014
Страна: США (Anonymous Content, BR Capital Group, Merced Media Partners)
Жанр: Мелодрама, комедия
Продолжительность: 01:39:23
Перевод: Профессиональный (полное дублирование) [iTunes Russia]
Оригинальная дорожка: Нет
Cубтитры: Нет
Режиссер: Линн Шелтон / Lynn Shelton
В ролях: Кира Найтли, Хлоя Грейс Морец, Сэм Рокуэлл, Марк Веббер, Элли Кемпер, Джефф Гарлин, Гретхен Мол, Эрик Ридман, Кейтлин Девер, Дэниэл Дзоватто
Описание: Когда Меган получает предложение от парня, с которым уже давно встречается, оказывается, что на самом деле она абсолютно не готова к взрослой жизни. Поэтому она берет паузу, врёт своему парню, что уезжает на недельку в отпуск, а сама буквально «впадает в детство» и отрывается в компании малознакомых тинейджеров. Возможно, чтобы повзрослеть, ей нужно встретить другого мужчину?

Качество: HDRip (Рип с BDRip 1080p)
Формат: MP4
Видео: AVC, 960x520 (1.85:1), 1284 kbps, 23.976 fps
Аудио: Русский, AAC, 2 ch, 48 kHz, 128 kbps [Dub, iTunes]
Энн Хэтэуэй могла сыграть главную роль в этом фильме, но она покинула проект из-за занятости в фильмах «Однажды в Нью-Йорке» (2014) и «Интерстеллар» (2014). В итоге роль досталась Кире Найтли.
Ребекка Холл отказалась от главной роли в этом фильме, отдав предпочтение фильму «Превосходство» (2014).
Калифорнийская пустынная черепаха по имени Шелли была питомцем класса средней школы в Сиэтле на момент съемок.
Когда Меган разговаривает по Skype с Энтони, то на панели ноутбука отображается сначала 16 число, а потом 11-е. Так числа, 16 и 11, меняются несколько раз.
x264 [info]: frame I:1237 Avg QP:14.87 size: 77070
x264 [info]: frame P:29288 Avg QP:17.95 size: 16639
x264 [info]: frame B:112462 Avg QP:20.56 size: 3333

x264 [total]: encoded 142987 frames, 7.01 fps, 1284.35 kb/s
General
Complete name : [VIDEO] Laggies.2014.HDRip.x264.960x(semen_52-TNC).mp4
Format : MPEG-4
Format profile : Base Media
Codec ID : isom
File size : 1 010 MiB
Duration : 1h 39mn
Overall bit rate mode : Variable
Overall bit rate : 1 420 Kbps
Movie name : [VIDEO] Laggies 2014 HDRip x264 960x(semen_52-TNC)
ContentType : Short Film
Encoded date : UTC 2015-04-06 15:05:41
Tagged date : UTC 2015-04-06 15:07:01
Writing application : MkvToMp4 version: 0.224 (x64)
Comment : Rip by semen_52-TNC

Video
ID : 1
Format : AVC
Format/Info : Advanced Video Codec
Format profile : [email protected]
Format settings, CABAC : Yes
Format settings, ReFrames : 8 frames
Codec ID : avc1
Codec ID/Info : Advanced Video Coding
Duration : 1h 39mn
Bit rate : 1 284 Kbps
Maximum bit rate : 8 652 Kbps
Width : 960 pixels
Height : 520 pixels
Display aspect ratio : 1.85:1
Frame rate mode : Constant
Frame rate : 23.976 fps
Color space : YUV
Chroma subsampling : 4:2:0
Bit depth : 8 bits
Scan type : Progressive
Bits/(Pixel*Frame) : 0.107
Stream size : 913 MiB (90%)
Writing library : x264 core 130 r2273 b3065e6
Encoding settings : cabac=1 / ref=8 / deblock=1:-3:-3 / analyse=0x3:0x113 / me=esa / subme=9 / psy=1 / psy_rd=1.00:0.15 / mixed_ref=1 / me_range=32 / chroma_me=1 / trellis=2 / 8x8dct=1 / cqm=0 / deadzone=21,11 / fast_pskip=0 / chroma_qp_offset=-3 / threads=12 / lookahead_threads=2 / sliced_threads=0 / nr=0 / decimate=1 / interlaced=0 / bluray_compat=0 / constrained_intra=0 / bframes=8 / b_pyramid=2 / b_adapt=2 / b_bias=0 / direct=1 / weightb=1 / open_gop=0 / weightp=2 / keyint=250 / keyint_min=25 / scenecut=40 / intra_refresh=0 / rc_lookahead=60 / rc=crf / mbtree=1 / crf=19.0 / qcomp=0.60 / qpmin=0 / qpmax=69 / qpstep=4 / ip_ratio=1.40 / aq=1:1.00
Language : English
Encoded date : UTC 2015-04-06 15:05:41
Tagged date : UTC 2015-04-06 15:06:32
Color primaries : BT.709
Transfer characteristics : BT.709
Matrix coefficients : BT.709
Color range : Limited

Audio
ID : 2
Format : AAC
Format/Info : Advanced Audio Codec
Format profile : LC
Codec ID : 40
Duration : 1h 39mn
Bit rate mode : Variable
Bit rate : 128 Kbps
Maximum bit rate : 135 Kbps
Channel(s) : 2 channels
Channel positions : Front: L R
Sampling rate : 48.0 KHz
Compression mode : Lossy
Stream size : 91.0 MiB (9%)
Title : Dub iTunes / Dub iTunes
Language : Russian
Encoded date : UTC 2015-04-06 15:06:03
Tagged date : UTC 2015-04-06 15:06:32


Трекер:  [ 06-Апр-2015 19:30 ]

  

Скачать .torrent

Размер .torrent файла 20 KB


Размер: 1010 MB
Хэш (hash) релиза: 5078d726351257074820282f4e3f0f88bd52934e

Еще никто не оставлял запись к записи скачать торрент [VIDEO] Детка Laggies . Будь первым!

!Обратная связь