Jay Rock – Redemption (2018) .mp3 320 kbps | Die Aquarium-Profis | Regarder un film

Скачать через торрент [VIDEO] Несносные боссы 2 Horrible Bosses 2 бесплатно русская версия torrent активатор

Статистика раздачи
Размер:  1.31 GB   |    Зарегистрирован:  3 года 3 месяца   |    .torrent скачан:  76 раз   |   
Раздают:  1  
   
загрузка...
 
Автор Сообщение

Galfimbul

avatar Galfimbul


Несносные боссы 2
Horrible Bosses 2

Год выпуска: 2014
Страна: США (BenderSpink, New Line Cinema, RatPac Entertainment)
Жанр: Комедия
Продолжительность: 01:48:26 (Theatrical cut / Театральная версия)
Перевод 1: Профессиональный (полное дублирование)
Перевод 2: Авторский (одноголосый, закадровый) [Д. Пучков]
Оригинальная дорожка: Английский
Cубтитры: Русские отключаемые, форсированные и полные
Режиссер: Шон Андерс / Sean Anders
В ролях: Джейсон Бейтмен, Джейсон Судейкис, Чарли Дэй, Крис Пайн, Дженнифер Энистон, Кристоф Вальц, Джейми Фокс, Кевин Спейси, Джонатан Бэнкс, Линдсей Слоун, Кигэн-Майкл Ки, Келли Стейблз, Джерри Ламберт, Сэм Ричардсон, Брайан Хоуи, Лидия Порто, Джэй Рэйзор, Леннон Парэм, Джилл Бейси, Алисса Престон
Описание: Ник, Дэйл и Курт решают сами стать боссами и открывают собственный бизнес. Но инвестор кидает их. Тогда они решают похитить его взрослого сына, чтобы получить выкуп и вернуть себе контроль над компанией.

Качество: HDRip (Рип с BDRip 1080p)
Формат: MP4
Видео: AVC, 960x400 (2.40:1), 1327 kbps, 23.976 fps
Аудио 1: Русский, AAC, 2 ch, 48 kHz, 128 kbps [Dub]
Аудио 2: Русский, AAC, 2 ch, 48 kHz, 128 kbps [AVO, Д. Пучков]
Аудио 3: Английский, AAC, 2 ch, 48 kHz, 128 kbps [Original]
Это первый сиквел в карьере Дженнифер Энистон.
Сцену погони по ночному Лос-Анджелесу пришлось снимать с привлечением сразу 18 каскадеров.
Изобретение, которое герои представляют в прямом эфире телепередачи — душевая кабина «Мыльный братец», — было придумано сценаристами картины и оказалось первым в своем роде. Авторы даже подумывали его запатентовать.
x264 [info]: frame I:1857 Avg QP:13.11 size: 64621
x264 [info]: frame P:33019 Avg QP:16.67 size: 16232
x264 [info]: frame B:121138 Avg QP:19.81 size: 3494

x264 [total]: encoded 156014 frames, 4.25 fps, 1326.90 kb/s
General
Complete name : [VIDEO] Horrible.Bosses.2.2014.HDRip.x264.960x(semen_52-TNC).mp4
Format : MPEG-4
Format profile : Base Media
Codec ID : isom
File size : 1.31 GiB
Duration : 1h 48mn
Overall bit rate mode : Variable
Overall bit rate : 1 726 Kbps
Movie name : [VIDEO] Horrible Bosses 2 2014 HDRip x264 960x(semen_52-TNC)
ContentType : Short Film
Encoded date : UTC 2015-04-04 20:51:25
Tagged date : UTC 2015-04-04 20:53:46
Writing application : MkvToMp4 version: 0.224 (x64)
Comment : Rip dy semen_52-TNC

Video
ID : 1
Format : AVC
Format/Info : Advanced Video Codec
Format profile : [email protected]
Format settings, CABAC : Yes
Format settings, ReFrames : 8 frames
Codec ID : avc1
Codec ID/Info : Advanced Video Coding
Duration : 1h 48mn
Bit rate : 1 327 Kbps
Maximum bit rate : 8 125 Kbps
Width : 960 pixels
Height : 400 pixels
Display aspect ratio : 2.40:1
Frame rate mode : Constant
Frame rate : 23.976 fps
Color space : YUV
Chroma subsampling : 4:2:0
Bit depth : 8 bits
Scan type : Progressive
Bits/(Pixel*Frame) : 0.144
Stream size : 1.01 GiB (77%)
Writing library : x264 core 130 r2273 b3065e6
Encoding settings : cabac=1 / ref=8 / deblock=1:-3:-2 / analyse=0x3:0x113 / me=esa / subme=9 / psy=1 / psy_rd=1.00:0.10 / mixed_ref=1 / me_range=32 / chroma_me=1 / trellis=2 / 8x8dct=1 / cqm=0 / deadzone=21,11 / fast_pskip=0 / chroma_qp_offset=-3 / threads=12 / lookahead_threads=2 / sliced_threads=0 / nr=0 / decimate=1 / interlaced=0 / bluray_compat=0 / constrained_intra=0 / bframes=10 / b_pyramid=2 / b_adapt=2 / b_bias=0 / direct=1 / weightb=1 / open_gop=0 / weightp=2 / keyint=250 / keyint_min=25 / scenecut=40 / intra_refresh=0 / rc_lookahead=60 / rc=crf / mbtree=1 / crf=17.0 / qcomp=0.60 / qpmin=0 / qpmax=69 / qpstep=4 / ip_ratio=1.40 / aq=1:0.90
Language : English
Encoded date : UTC 2015-04-04 20:51:25
Tagged date : UTC 2015-04-04 20:51:59

Audio #1
ID : 2
Format : AAC
Format/Info : Advanced Audio Codec
Format profile : LC
Codec ID : 40
Duration : 1h 48mn
Bit rate mode : Variable
Bit rate : 128 Kbps
Maximum bit rate : 135 Kbps
Channel(s) : 2 channels
Channel positions : Front: L R
Sampling rate : 48.0 KHz
Compression mode : Lossy
Stream size : 99.3 MiB (7%)
Title : Dub / Dub
Language : Russian
Encoded date : UTC 2015-04-04 20:51:41
Tagged date : UTC 2015-04-04 20:51:59

Audio #2
ID : 3
Format : AAC
Format/Info : Advanced Audio Codec
Format profile : LC
Codec ID : 40
Duration : 1h 48mn
Bit rate mode : Variable
Bit rate : 128 Kbps
Maximum bit rate : 135 Kbps
Channel(s) : 2 channels
Channel positions : Front: L R
Sampling rate : 48.0 KHz
Compression mode : Lossy
Stream size : 99.3 MiB (7%)
Title : AVO D. Puchkov / AVO D. Puchkov
Language : Russian
Encoded date : UTC 2015-04-04 20:51:46
Tagged date : UTC 2015-04-04 20:51:59

Audio #3
ID : 4
Format : AAC
Format/Info : Advanced Audio Codec
Format profile : LC
Codec ID : 40
Duration : 1h 48mn
Bit rate mode : Variable
Bit rate : 128 Kbps
Maximum bit rate : 134 Kbps
Channel(s) : 2 channels
Channel positions : Front: L R
Sampling rate : 48.0 KHz
Compression mode : Lossy
Stream size : 99.3 MiB (7%)
Title : Original / Original
Language : English
Encoded date : UTC 2015-04-04 20:51:52
Tagged date : UTC 2015-04-04 20:51:59

Text #1
ID : 5
Format : Timed Text
Muxing mode : sbtl
Codec ID : tx3g
Duration : 1h 48mn
Bit rate mode : Variable
Bit rate : 1 bps
Stream size : 839 Bytes (0%)
Title : Forced / Forced
Language : Russian
Encoded date : UTC 2015-04-04 20:51:58
Tagged date : UTC 2015-04-04 20:51:59

Text #2
ID : 6
Format : Timed Text
Muxing mode : sbtl
Codec ID : tx3g
Duration : 1h 44mn
Bit rate mode : Variable
Bit rate : 183 bps
Stream size : 140 KiB (0%)
Title : Full / Full
Language : Russian
Encoded date : UTC 2015-04-04 20:51:58
Tagged date : UTC 2015-04-04 20:51:59


Трекер:  [ 05-Апр-2015 00:00 ]

  

Скачать .torrent

Размер .torrent файла 13 KB


Размер: 1.31 GB
Хэш (hash) релиза: f6eb33b10c215ad4fb0e4c32eab5696e98709602

Еще никто не оставлял запись к записи скачать торрент [VIDEO] Несносные боссы 2 Horrible Bosses 2 . Будь первым!

!Обратная связь