Yeni Sekmede Aç | Strike (2017) | Step Brother

Скачать через торрент [VIDEO] Звездная карта Maps to the Stars бесплатно русская версия torrent активатор

Статистика раздачи
Размер:  1023 MB   |    Зарегистрирован:  3 года 3 месяца   |    .torrent скачан:  35 раз   |   
Раздают:  1  
   
загрузка...
 
Автор Сообщение

Galfimbul

avatar Galfimbul


Звездная карта
Maps to the Stars

Год выпуска: 2014
Страна: Канада, США, Германия, Франция (Integral Film GmbH, Prospero Pictures, SBS Productions, Sentient Entertainment)
Жанр: Драма
Продолжительность: 01:47:17
Перевод 1: Профессиональный (многоголосый, закадровый)
Перевод 2: Авторский (одноголосый, закадровый) [С. Визгунов]
Оригинальная дорожка: Английский
Cубтитры: Русские отключаемые, полные
Режиссер: Дэвид Кроненберг / David Cronenberg
В ролях: Джулианна Мур, Миа Васиковска, Джон Кьюсак, Эван Бёрд, Оливия Уильямс, Роберт Паттинсон, Кьяра Гласко, Сара Гадон, Доун Гринхалг, Джонатан Уоттон
Описание: Место действия — два голливудских дома. В одном живет стареющая актриса, которая надеется сыграть роль собственной давно погибшей матери — легенды черно-белого кино. Другой особняк — резиденция сверхуспешного психотерапевта, его жены и их сына — 13-летнего миллионера, наркомана и звезды. В оба дома проникает девушка из Флориды, которая подружилась в твиттере с Кэрри Фишер и надеется с ее помощью покорить Лос-Анджелес.

Качество: HDRip (Рип с BDRip 1080p)
Формат: MP4
Видео: AVC, 960x520 (1.85:1), 934 kbps, 23.976 fps
Аудио 1: Русский, AAC, 2 ch, 48 kHz, 128 kbps [MVO]
Аудио 2: Русский, AAC, 2 ch, 48 kHz, 128 kbps [AVO, С. Визгунов]
Аудио 3: Английский, AAC, 2 ch, 48 kHz, 128 kbps [Original]
Золотой глобус, 2015 год
Номинации (1):
Лучшая женская роль (комедия или мюзикл) (Джулианна Мур)

Каннский кинофестиваль, 2014 год
Победитель (1):
Лучшая женская роль (Джулианна Мур)
Номинации (1):
Золотая пальмовая ветвь
Фильм снимался в течение пяти дней в Лос-Анджелесе и Беверли-Хиллз и в течение 24 дней — в Торонто, родном городе режиссера Дэвида Кроненберга.
Вигго Мортенсен и Рейчел Вайс рассматривались на роли доктора Стаффорда и Гаваны Сегранд, но оба покинули проект из-за несогласованности в расписаниях съемок. В итоге их роли достались Джону Кьюсаку и Джулианне Мур.
Писатель и сценарист Брюс Вагнер снялся в фильме в эпизодической роли лысого водителя в темных очках и в черном костюме, который стоит на фоне, когда Бенджи оскорбляет Арнольда перед детской больницей. Примечателен тот факт, что Вагнер, прежде чем стал известным писателем, работал водителем лимузина.
Награда, которой Агата бьет Гавану, — это Genie Award, награда за достижения в кино, существовавшая в Канаде до 2012 года. Режиссер фильма Дэвид Кроненберг пять раз удостаивался этой награды.
В начале фильма, в сцене в машине, вид за окном резко меняется при смене кадра, когда показывают по очереди водителя и пассажирку.
x264 [info]: frame I:1353 Avg QP:14.52 size: 62691
x264 [info]: frame P:31670 Avg QP:17.74 size: 12544
x264 [info]: frame B:127907 Avg QP:21.30 size: 2109

x264 [total]: encoded 160930 frames, 8.99 fps, 934.30 kb/s
General
Complete name : [VIDEO] Maps.to.the.Stars.2014.HDRip.x264.960x(semen_52-TNC).mp4
Format : MPEG-4
Format profile : Base Media
Codec ID : isom
File size : 1 023 MiB
Duration : 1h 47mn
Overall bit rate mode : Variable
Overall bit rate : 1 333 Kbps
Movie name : [VIDEO] Maps to the Stars 2014 HDRip x264 960x(semen_52-TNC)
ContentType : Short Film
Encoded date : UTC 2015-04-04 16:45:26
Tagged date : UTC 2015-04-04 16:49:30
Writing application : MkvToMp4 version: 0.224 (x64)
Comment : Rip by semen_52-TNC

Video
ID : 1
Format : AVC
Format/Info : Advanced Video Codec
Format profile : [email protected]
Format settings, CABAC : Yes
Format settings, ReFrames : 8 frames
Codec ID : avc1
Codec ID/Info : Advanced Video Coding
Duration : 1h 47mn
Bit rate : 934 Kbps
Maximum bit rate : 5 139 Kbps
Width : 960 pixels
Height : 520 pixels
Display aspect ratio : 1.85:1
Frame rate mode : Constant
Frame rate : 25.000 fps
Color space : YUV
Chroma subsampling : 4:2:0
Bit depth : 8 bits
Scan type : Progressive
Bits/(Pixel*Frame) : 0.075
Stream size : 717 MiB (70%)
Writing library : x264 core 130 r2273 b3065e6
Encoding settings : cabac=1 / ref=8 / deblock=1:-3:-2 / analyse=0x3:0x113 / me=esa / subme=9 / psy=1 / psy_rd=0.90:0.15 / mixed_ref=1 / me_range=32 / chroma_me=1 / trellis=2 / 8x8dct=1 / cqm=0 / deadzone=21,11 / fast_pskip=0 / chroma_qp_offset=-3 / threads=12 / lookahead_threads=2 / sliced_threads=0 / nr=0 / decimate=1 / interlaced=0 / bluray_compat=0 / constrained_intra=0 / bframes=9 / b_pyramid=2 / b_adapt=2 / b_bias=0 / direct=1 / weightb=1 / open_gop=0 / weightp=2 / keyint=250 / keyint_min=25 / scenecut=40 / intra_refresh=0 / rc_lookahead=60 / rc=crf / mbtree=1 / crf=19.0 / qcomp=0.60 / qpmin=0 / qpmax=69 / qpstep=4 / ip_ratio=1.40 / aq=1:1.00
Language : English
Encoded date : UTC 2015-04-04 16:45:26
Tagged date : UTC 2015-04-04 16:48:50

Audio #1
ID : 2
Format : AAC
Format/Info : Advanced Audio Codec
Format profile : LC
Codec ID : 40
Duration : 1h 47mn
Bit rate mode : Variable
Bit rate : 128 Kbps
Maximum bit rate : 135 Kbps
Channel(s) : 2 channels
Channel positions : Front: L R
Sampling rate : 48.0 KHz
Compression mode : Lossy
Stream size : 98.2 MiB (10%)
Title : Dub / Dub
Language : Russian
Encoded date : UTC 2015-04-04 16:45:47
Tagged date : UTC 2015-04-04 16:48:50

Audio #2
ID : 3
Format : AAC
Format/Info : Advanced Audio Codec
Format profile : LC
Codec ID : 40
Duration : 1h 47mn
Bit rate mode : Variable
Bit rate : 128 Kbps
Maximum bit rate : 135 Kbps
Channel(s) : 2 channels
Channel positions : Front: L R
Sampling rate : 48.0 KHz
Compression mode : Lossy
Stream size : 98.2 MiB (10%)
Title : AVO Vizgunov / AVO Vizgunov
Language : Russian
Encoded date : UTC 2015-04-04 16:48:00
Tagged date : UTC 2015-04-04 16:48:50

Audio #3
ID : 4
Format : AAC
Format/Info : Advanced Audio Codec
Format profile : LC
Codec ID : 40
Duration : 1h 47mn
Bit rate mode : Variable
Bit rate : 128 Kbps
Maximum bit rate : 135 Kbps
Channel(s) : 2 channels
Channel positions : Front: L R
Sampling rate : 48.0 KHz
Compression mode : Lossy
Stream size : 98.2 MiB (10%)
Title : Original / Original
Language : English
Encoded date : UTC 2015-04-04 16:48:20
Tagged date : UTC 2015-04-04 16:48:50

Text
ID : 5
Format : Timed Text
Muxing mode : sbtl
Codec ID : tx3g
Duration : 1h 41mn
Bit rate mode : Variable
Bit rate : 119 bps
Stream size : 88.8 KiB (0%)
Title : Full / Full
Language : Russian
Encoded date : UTC 2015-04-04 16:48:49
Tagged date : UTC 2015-04-04 16:48:50


Трекер:  [ 04-Апр-2015 22:00 ]

  

Скачать .torrent

Размер .torrent файла 20 KB


Размер: 1023 MB
Хэш (hash) релиза: d6382678be2c37e6373e2070a1de15674ca0d26e

Еще никто не оставлял запись к записи скачать торрент [VIDEO] Звездная карта Maps to the Stars . Будь первым!

!Обратная связь