Once Upon A Time - Season 3 | Le mensonge de ma vie 2015 HD-TV | Всё для Apple

Скачать через торрент [VIDEO] Царство красоты Le règne de la beauté бесплатно русская версия torrent активатор

Статистика раздачи
Размер:  1013 MB   |    Зарегистрирован:  3 года 3 месяца   |    .torrent скачан:  45 раз   |   
Раздают:  1  
   
загрузка...
 
Автор Сообщение

Galfimbul

avatar Galfimbul


Царство красоты
Le règne de la beauté

Год выпуска: 2014
Страна: Канада (Cinémaginaire Inc.)
Жанр: Драма
Продолжительность: 01:41:59
Перевод: Профессиональный (многоголосый, закадровый)
Оригинальная дорожка: Нет
Cубтитры: Нет
Режиссер: Дени Аркан / Denys Arcand
В ролях: Эрик Брунэо, Мелани Тьерри, Мелани Меркоски, Мари-Жозе Кроз, Мэтью Куэснел, Мишель Форге, Женевьева Буавен-Русси, Мэгали Лепин Блондо, Ив Жак, Хуана Акоста
Описание: Люк был вполне счастливым супругом своей красавицы-жены Стефани. Но все резко меняет одно путешествие в Торонто. Одна вечеринка, томные взгляды и откровенные желания провести ночь с другой женщиной… Люк изменил Стефани. Случайный, страстный секс, изменит мир героя, когда случайна любовница опять возникнет на пути. Люк признается Стефани в измене, что приводит к неожиданным и опасным последствиям для всех.

Качество: HDRip (Рип с BDRip 1080p)
Формат: MP4
Видео: AVC, 960x520 (1.85:1), 1254 kbps, 23.976 fps
Аудио: Русский, AAC, 2 ch, 48 kHz, 128 kbps [MVO]
x264 [info]: frame I:1088 Avg QP:15.71 size: 80822
x264 [info]: frame P:31020 Avg QP:19.24 size: 17023
x264 [info]: frame B:114610 Avg QP:22.45 size: 2992

x264 [total]: encoded 146718 frames, 7.53 fps, 1253.60 kb/s
General
Complete name : [VIDEO] Le.regne.de.la.beaute.2014.HDRip.x264.960x(semen_52-TNC).mp4
Format : MPEG-4
Format profile : Base Media
Codec ID : isom
File size : 1 013 MiB
Duration : 1h 41mn
Overall bit rate mode : Variable
Overall bit rate : 1 389 Kbps
Movie name : [VIDEO] Le regne de la beaute 2014 HDRip x264 960x(semen_52-TNC)
ContentType : Short Film
Encoded date : UTC 2015-04-04 17:30:21
Tagged date : UTC 2015-04-04 17:33:07
Writing application : MkvToMp4 version: 0.224 (x64)
Comment : Rip by semen_52-TNC

Video
ID : 1
Format : AVC
Format/Info : Advanced Video Codec
Format profile : [email protected]
Format settings, CABAC : Yes
Format settings, ReFrames : 8 frames
Codec ID : avc1
Codec ID/Info : Advanced Video Coding
Duration : 1h 41mn
Bit rate : 1 254 Kbps
Maximum bit rate : 6 926 Kbps
Width : 960 pixels
Height : 520 pixels
Display aspect ratio : 1.85:1
Frame rate mode : Constant
Frame rate : 23.976 fps
Color space : YUV
Chroma subsampling : 4:2:0
Bit depth : 8 bits
Scan type : Progressive
Bits/(Pixel*Frame) : 0.105
Stream size : 914 MiB (90%)
Writing library : x264 core 130 r2273 b3065e6
Encoding settings : cabac=1 / ref=8 / deblock=1:-3:-3 / analyse=0x3:0x113 / me=esa / subme=9 / psy=1 / psy_rd=1.00:0.15 / mixed_ref=1 / me_range=32 / chroma_me=1 / trellis=2 / 8x8dct=1 / cqm=0 / deadzone=21,11 / fast_pskip=0 / chroma_qp_offset=-3 / threads=12 / lookahead_threads=2 / sliced_threads=0 / nr=0 / decimate=1 / interlaced=0 / bluray_compat=0 / constrained_intra=0 / bframes=9 / b_pyramid=2 / b_adapt=2 / b_bias=0 / direct=1 / weightb=1 / open_gop=0 / weightp=2 / keyint=250 / keyint_min=25 / scenecut=40 / intra_refresh=0 / rc_lookahead=60 / rc=crf / mbtree=1 / crf=20.0 / qcomp=0.60 / qpmin=0 / qpmax=69 / qpstep=4 / ip_ratio=1.40 / aq=1:1.00
Language : English
Encoded date : UTC 2015-04-04 17:30:21
Tagged date : UTC 2015-04-04 17:32:40

Audio
ID : 2
Format : AAC
Format/Info : Advanced Audio Codec
Format profile : LC
Codec ID : 40
Duration : 1h 41mn
Bit rate mode : Variable
Bit rate : 128 Kbps
Maximum bit rate : 135 Kbps
Channel(s) : 2 channels
Channel positions : Front: L R
Sampling rate : 48.0 KHz
Compression mode : Lossy
Stream size : 93.4 MiB (9%)
Title : MVO / MVO
Language : Russian
Encoded date : UTC 2015-04-04 17:30:44
Tagged date : UTC 2015-04-04 17:32:40


Трекер:  [ 04-Апр-2015 22:00 ]

  

Скачать .torrent

Размер .torrent файла 20 KB


Размер: 1013 MB
Хэш (hash) релиза: 25529b0e48faaea892c5b42b13de354f9702488c

Еще никто не оставлял запись к записи скачать торрент [VIDEO] Царство красоты Le règne de la beauté . Будь первым!

!Обратная связь