Suivant → | Fantasia | Linc Hand

Скачать через торрент [VIDEO] Серена Serena бесплатно русская версия torrent активатор

Статистика раздачи
Размер:  1008 MB   |    Зарегистрирован:  3 года 3 месяца   |    .torrent скачан:  29 раз   |   
Раздают:  1  
   
загрузка...
 
Автор Сообщение

Galfimbul

avatar Galfimbul


Серена
Serena

Год выпуска: 2014
Страна: США, Франция, Чехия (2929 Productions, Chockstone Pictures, Nick Wechsler Productions, Studio Canal)
Жанр: Драма, экранизация
Продолжительность: 01:50:08
Перевод: Профессиональный (полное дублирование) [iTunes Russia]
Оригинальная дорожка: Нет
Cубтитры: Нет
Режиссер: Сюзанна Бир / Susanne Bier
В ролях: Дженнифер Лоуренс, Брэдли Купер, Рис Иванс, Тоби Джонс, Шон Харрис, Сэм Рид, Ким Бодния, Блэйк Ритсон, Давид Денсик, Чарити Уэйкфилд, Нед Деннехи, Ана Улару, Кристиан МакКэй, Майкл Райан, Марк О’Нил, Рэймонд Варинг, Джим Хай, Бодиль Ёргенсон
Описание: Ослепительная красавица Серена выходит замуж за успешного промышленника Джорджа Пембертона. Счастливая пара правит лесозаготовительной империей Пембертонов, и кажется, что нет ничего и никого, кто мог бы встать на пути их полного нежности и страсти брака. Но тайны прошлого и ревность опасны как стихия.

Качество: HDRip (Рип с BDRip 1080p)
Формат: MP4
Видео: AVC, 960x400 (2.40:1), 1144 kbps, 23.976 fps
Аудио: Русский, AAC, 2 ch, 48 kHz, 128 kbps [Dub, iTunes]
Фильм снят по мотивам романа Рона Рэша «Серена» (Serena, 2008).
По словам режиссера, во время пост-продакшна фильма возникла проблема: из-за шума самолета во время съемок в Праге нужно было переозвучить диалог. У Дженнифер Лоуренс был плотный рабочий график, и она не могла прийти для озвучивания диалога.
Продюсеры «Серены» (2014) пытались выкупить Лоуренс на один день со съемок фильма «Голодные игры: И вспыхнет пламя» (2013), но это оказалось дороже, чем весь бюджет «Серены» (2014).
Съёмки фильма проходили в Чехии.
Дженнифер Лоуренс предложила на главную мужскую роль взять Брэдли Купера.
Первоначально фильм должен был снимать Даррен Аронофски с Анджелиной Джоли в главной роли.
x264 [info]: frame I:1161 Avg QP:14.32 size: 62124
x264 [info]: frame P:36314 Avg QP:18.15 size: 15104
x264 [info]: frame B:120962 Avg QP:21.81 size: 2683

x264 [total]: encoded 158437 frames, 8.95 fps, 1144.18 kb/s
General
Complete name : [VIDEO] Serena.2014.HDRip.x264.960x(semen_52-TNC).mp4
Format : MPEG-4
Format profile : Base Media
Codec ID : isom
File size : 1 008 MiB
Duration : 1h 50mn
Overall bit rate mode : Variable
Overall bit rate : 1 280 Kbps
Movie name : [VIDEO] Serena 2014 HDRip x264 960x(semen_52-TNC)
ContentType : Short Film
Encoded date : UTC 2015-04-04 17:49:48
Tagged date : UTC 2015-04-04 17:51:15
Writing application : MkvToMp4 [version: 0.224 (x64)
Comment : Rip by semen_52-TNC

Video
ID : 1
Format : AVC
Format/Info : Advanced Video Codec
Format profile : [email protected]
Format settings, CABAC : Yes
Format settings, ReFrames : 8 frames
Codec ID : avc1
Codec ID/Info : Advanced Video Coding
Duration : 1h 50mn
Bit rate : 1 144 Kbps
Maximum bit rate : 8 226 Kbps
Width : 960 pixels
Height : 400 pixels
Display aspect ratio : 2.40:1
Frame rate mode : Constant
Frame rate : 23.976 fps
Color space : YUV
Chroma subsampling : 4:2:0
Bit depth : 8 bits
Scan type : Progressive
Bits/(Pixel*Frame) : 0.124
Stream size : 901 MiB (89%)
Writing library : x264 core 130 r2273 b3065e6
Encoding settings : cabac=1 / ref=8 / deblock=1:-3:-3 / analyse=0x3:0x113 / me=esa / subme=9 / psy=1 / psy_rd=1.00:0.15 / mixed_ref=1 / me_range=32 / chroma_me=1 / trellis=2 / 8x8dct=1 / cqm=0 / deadzone=21,11 / fast_pskip=0 / chroma_qp_offset=-3 / threads=12 / lookahead_threads=2 / sliced_threads=0 / nr=0 / decimate=1 / interlaced=0 / bluray_compat=0 / constrained_intra=0 / bframes=9 / b_pyramid=2 / b_adapt=2 / b_bias=0 / direct=1 / weightb=1 / open_gop=0 / weightp=2 / keyint=250 / keyint_min=25 / scenecut=40 / intra_refresh=0 / rc_lookahead=60 / rc=crf / mbtree=1 / crf=18.6 / qcomp=0.60 / qpmin=0 / qpmax=69 / qpstep=4 / ip_ratio=1.40 / aq=1:0.90
Language : English
Encoded date : UTC 2015-04-04 17:49:48
Tagged date : UTC 2015-04-04 17:50:45

Audio
ID : 2
Format : AAC
Format/Info : Advanced Audio Codec
Format profile : LC
Codec ID : 40
Duration : 1h 50mn
Bit rate mode : Variable
Bit rate : 128 Kbps
Maximum bit rate : 135 Kbps
Channel(s) : 2 channels
Channel positions : Front: L R
Sampling rate : 48.0 KHz
Compression mode : Lossy
Stream size : 101 MiB (10%)
Title : Dub iTunes / Dub iTunes
Language : Russian
Encoded date : UTC 2015-04-04 17:50:33
Tagged date : UTC 2015-04-04 17:50:45


Трекер:  [ 04-Апр-2015 21:30 ]

  

Скачать .torrent

Размер .torrent файла 20 KB


Размер: 1008 MB
Хэш (hash) релиза: 9012e3fb9ed6157c8a6981aee15fe27012384e81

Еще никто не оставлял запись к записи скачать торрент [VIDEO] Серена Serena . Будь первым!

!Обратная связь