Robbie Coltrane | Busou Renkin Subtitle Indonesia | Learn More, Study Less 2017

Скачать через торрент [VIDEO] Охотник на лис Foxcatcher бесплатно русская версия torrent активатор

Статистика раздачи
Размер:  1.41 GB   |    Зарегистрирован:  3 года 3 месяца   |    .torrent скачан:  46 раз   |   
Раздают:  1  
   
загрузка...
 
Автор Сообщение

Galfimbul

avatar Galfimbul


Охотник на лис
Foxcatcher

Год выпуска: 2014
Страна: США (Annapurna Pictures, Likely Story, Media Rights Capital)
Жанр: Триллер, драма, биография, спорт
Продолжительность: 02:14:26
Перевод: Профессиональный (полное дублирование) [iTunes Russia]
Оригинальная дорожка: Нет
Cубтитры: Нет
Режиссер: Беннетт Миллер / Bennett Miller
В ролях: Ченнинг Татум, Стив Карелл, Марк Руффало, Сиенна Миллер, Ванесса Редгрейв, Энтони Майкл Холл, Гай Бойд, Бретт Райс, Джексон Фрейзер, Самара Ли
Описание: Мультимиллионер Джон Дюпон приглашает в свое поместье обладателя олимпийской золотой медали по борьбе Марка Шульца для подготовки команды к Олимпийским играм в Сеуле 1988 года. В надежде посвятить всего себя тренировкам, достойно выступить и выйти из тени своего брата, легендарного борца Дейва Шульца, Марк принимает предложение. Но параноик Дюпон затевает игру в кошки-мышки с Марком и Дейвом. Эта жестокая игра отдаляет братьев и ведет к нелепой трагедии.

Качество: HDRip (Рип с BDRip 1080p)
Формат: MP4
Видео: AVC, 960x520 (1.85:1), 1368 kbps, 23.976 fps
Аудио: Русский, AAC, 2 ch, 48 kHz, 128 kbps [Dub, iTunes]
Для реализации проекта потребовались многие годы. На главные роли на раннем этапе подготовки к съемкам рассматривались такие актеры как Хит Леджер, Райан Гослинг и Билл Найи.
Во время кинопроб Стив Карелл носил разные варианты искусственных носов. Нанесение грима занимало два часа. Стиву меняли прическу и наносили грим, чтобы изменить оттенок кожи.
Во время подготовки к съемкам Ченнинг Татум и Марк Руффало на протяжении полугода интенсивно занимались борьбой.
Готовясь к своей роли, Стив Карелл часами смотрел нарезки, посвященные Джону Дюпону. После показа фильма на Каннском Кинофестивале Карелл сказал журналистам следующее: «Я пересмотрел все, что смог, перечитал все, что смог о Дюпоне и попытался стать похожим на него человеком».
На роль Дюпона рассматривался Гари Олдман.
Фильм основан на реальной истории.
Финальная сцена фильма, это отсылка к единственному бою Марка проведённому по правилам ММА, в организации UFC.
Нэнси Шульц, вдова Дэвида Шульца, отдала Марку Руффало очки своего мужа, так что в фильме Руффало носит настоящие очки Дэвида.
В сцене, когда команда сидит и смотрим по телевизору бои без правил (хронометраж фильма 1:10), показывают бой из турнира UFC 2. Данный турнир прошел в марте 1994, хотя по фильму речь идет о 1987.
Оскар, 2015 год
Номинации (5):
Лучшая мужская роль (Стив Карелл)
Лучшая мужская роль второго плана (Марк Руффало)
Лучший режиссер (Беннетт Миллер)
Лучший сценарий
Лучший грим и прически

Золотой глобус, 2015 год
Номинации (3):
Лучший фильм (драма)
Лучшая мужская роль (драма) (Стив Карелл)
Лучшая мужская роль второго плана (Марк Руффало)

Британская академия, 2015 год
Номинации (2):
Лучшая мужская роль второго плана (Марк Руффало)
Лучшая мужская роль второго плана (Стив Карелл)

Премия Гильдии актеров, 2015 год
Номинации (2):
Лучшая мужская роль (Стив Карелл)
Лучшая мужская роль второго плана (Марк Руффало)

Каннский кинофестиваль, 2014 год
Победитель (1):
Лучший режиссер (Беннетт Миллер)
Номинации (1):
Золотая пальмовая ветвь
x264 [info]: frame I:1182 Avg QP:13.59 size: 77190
x264 [info]: frame P:37500 Avg QP:16.84 size: 17281
x264 [info]: frame B:154709 Avg QP:19.53 size: 4140

x264 [total]: encoded 193391 frames, 4.82 fps, 1368.43 kb/s
General
Complete name : [VIDEO] Foxcatcher.2014.HDRip.x264.960x(semen_52-TNC).mp4
Format : MPEG-4
Format profile : Base Media
Codec ID : isom
File size : 1.41 GiB
Duration : 2h 14mn
Overall bit rate mode : Variable
Overall bit rate : 1 504 Kbps
Movie name : [VIDEO] Foxcatcher 2014 HDRip x264 960x(semen_52-TNC)
ContentType : Short Film
Encoded date : UTC 2015-04-04 16:55:40
Tagged date : UTC 2015-04-04 16:57:14
Writing application : MkvToMp4 version: 0.224 (x64)
Comment : Rip by semen_52-TNC

Video
ID : 1
Format : AVC
Format/Info : Advanced Video Codec
Format profile : [email protected]
Format settings, CABAC : Yes
Format settings, ReFrames : 8 frames
Codec ID : avc1
Codec ID/Info : Advanced Video Coding
Duration : 2h 14mn
Bit rate : 1 368 Kbps
Maximum bit rate : 9 872 Kbps
Width : 960 pixels
Height : 520 pixels
Display aspect ratio : 1.85:1
Frame rate mode : Constant
Frame rate : 23.976 fps
Color space : YUV
Chroma subsampling : 4:2:0
Bit depth : 8 bits
Scan type : Progressive
Bits/(Pixel*Frame) : 0.114
Stream size : 1.28 GiB (91%)
Writing library : x264 core 130 r2273 b3065e6
Encoding settings : cabac=1 / ref=8 / deblock=1:-3:-3 / analyse=0x3:0x113 / me=esa / subme=9 / psy=1 / psy_rd=1.00:0.00 / mixed_ref=1 / me_range=32 / chroma_me=1 / trellis=2 / 8x8dct=1 / cqm=0 / deadzone=21,11 / fast_pskip=0 / chroma_qp_offset=-2 / threads=12 / lookahead_threads=2 / sliced_threads=0 / nr=0 / decimate=1 / interlaced=0 / bluray_compat=0 / constrained_intra=0 / bframes=10 / b_pyramid=2 / b_adapt=2 / b_bias=0 / direct=1 / weightb=1 / open_gop=0 / weightp=2 / keyint=250 / keyint_min=25 / scenecut=40 / intra_refresh=0 / rc_lookahead=60 / rc=crf / mbtree=1 / crf=18.0 / qcomp=0.60 / qpmin=0 / qpmax=69 / qpstep=4 / ip_ratio=1.40 / aq=1:1.00
Language : English
Encoded date : UTC 2015-04-04 16:55:40
Tagged date : UTC 2015-04-04 16:56:32

Audio
ID : 2
Format : AAC
Format/Info : Advanced Audio Codec
Format profile : LC
Codec ID : 40
Duration : 2h 14mn
Bit rate mode : Variable
Bit rate : 128 Kbps
Maximum bit rate : 135 Kbps
Channel(s) : 2 channels
Channel positions : Front: L R
Sampling rate : 48.0 KHz
Compression mode : Lossy
Stream size : 123 MiB (9%)
Title : Dub iTunes / Dub iTunes
Language : Russian
Encoded date : UTC 2015-04-04 16:55:59
Tagged date : UTC 2015-04-04 16:56:32


Трекер:  [ 04-Апр-2015 21:00 ]

  

Скачать .torrent

Размер .torrent файла 14 KB


Размер: 1.41 GB
Хэш (hash) релиза: e6e628743e8e858f3465cb9c4d7858c896e0c99f

Еще никто не оставлял запись к записи скачать торрент [VIDEO] Охотник на лис Foxcatcher . Будь первым!

!Обратная связь