Escobar Paradise Lost (2014) [Napisy] | » Vecchia Libreria | Hottie for Beach Bombshell

Скачать через торрент [VIDEO] Несносные боссы Horrible Bosses бесплатно русская версия torrent активатор

Статистика раздачи
Размер:  1.12 GB   |    Зарегистрирован:  3 года 3 месяца   |    .torrent скачан:  61 раз   |   
Раздают:  1  
   
загрузка...
 
Автор Сообщение

Galfimbul

avatar Galfimbul


Несносные боссы
Horrible Bosses

Год выпуска: 2011
Страна: США (New Line Cinema, Rat Entertainment)
Жанр: Комедия, криминал
Продолжительность: 01:37:43 (Theatrical cut / Театральная версия)
Перевод: Профессиональный (полное дублирование)
Оригинальная дорожка: Английский
Cубтитры: Русские отключаемые, форсированные и полные
Режиссер: Сет Гордон / Seth Gordon
В ролях: Джейсон Бейтмен, Дженнифер Энистон, Колин Фаррелл, Йоан Гриффит, Кевин Спейси, Стив Виб, П.Дж. Бирн, Чарли Дэй, Линдси Слоун, Мишель Албала, Джейсон Судейкис, Реджинальд Баллард
Описание: Единственное, что могло бы сделать трудовые будни Ника, Курта и Дэйла чуть более выносимыми — возможность стереть в порошок их несносное начальство. Уволиться с работы — не вариант, поэтому, изрядно выпив и воспользовавшись советами бывшего преступника, трое друзей разрабатывают витиеватый и, казалось бы, безупречный план, как помочь друг другу навсегда избавиться от осточертевших работодателей. Проблема лишь в том, что даже самые продуманные планы безупречны ровно настолько, насколько умны разработавшие их люди.

Качество: HDRip (Рип с BDRip 1080p)
Формат: MP4
Видео: AVC, 960x400 (2.40:1), 1370 kbps, 23.976 fps
Аудио 1: Русский, AAC, 2 ch, 48 kHz, 128 kbps [Dub]
Аудио 2: Английский, AAC, 2 ch, 48 kHz, 128 kbps [Original]
Дженнифер Энистон снималась в фильме в тёмном парике, так как режиссёр счёл, что её обычный образ «слишком лёгкий» для роли стервозного босса. В отличие от большинства других актёров в фильме, Энистон не импровизирует в своей роли, а играет её точно по сценарию.
Фильм, который смотрит Дейл Арбус во время слежки, «Дневник памяти» (2004).
На роль Джулии рассматривались Наоми Уоттс и Сара Джессика Паркер.
Персонаж Чарли Дэя (Дэйл Арбас) часто вспоминает сериал «Закон и порядок», сам Чарли играл в одном эпизоде этого сериала.
Очки, которые носит героиня Дженнифер Энистон, сделаны для неё в единственном экземпляре на заказ.
Роль, которую исполняет Джейсон Бейтман, была написана сценаристами специально для него.
Герою предлагают уволить профессора Ксавьера, который ездит на коляске. Это является отсылкой к профессору Ксавьеру из фильма «Люди Икс» (2000).
Героям предлагают заснять на пленку, как герой Кевина Спейси признается в убийстве. Этот эпизод является отсылкой к другому фильму с участием Кевина Спейси — «Жизнь Дэвида Гейла» (2003).
В сцене, когда Дэйв Харкен собирает всех своих сотрудников и говорит мотивационную речь, можно увидеть отражение микрофона в стеклянной стене кабинета.
Премия канала «MTV», 2012 год
Победитель (1):
Лучший злодей (Дженнифер Энистон)
Номинации (2):
Лучший злодей (Колин Фаррелл)
Лучшее экранное перевоплощение (Колин Фаррелл)

Жорж, 2012 год
Номинации (1):
Лучшая зарубежная комедия
x264 [info]: frame I:1570 Avg QP:16.08 size: 66274
x264 [info]: frame P:27997 Avg QP:19.29 size: 16906
x264 [info]: frame B:111019 Avg QP:21.79 size: 3842

x264 [total]: encoded 140586 frames, 6.34 fps, 1369.67 kb/s
General
Complete name : [VIDEO] Horrible.Bosses.Theatrical.Cut.2011.HDRip.x264.960x(semen_52-TNC).mp4
Format : MPEG-4
Format profile : Base Media
Codec ID : isom
File size : 1.12 GiB
Duration : 1h 37mn
Overall bit rate mode : Variable
Overall bit rate : 1 637 Kbps
Movie name : Horrible Bosses Theatrical Cut 2011 HDRip x264 960x(semen_52-TNC)
ContentType : Short Film
Encoded date : UTC 2015-04-04 09:11:01
Tagged date : UTC 2015-04-04 09:12:23
Writing application : MkvToMp4 version: 0.224 (x64)
Comment : Rip by semen_52-TNC

Video
ID : 1
Format : AVC
Format/Info : Advanced Video Codec
Format profile : [email protected]
Format settings, CABAC : Yes
Format settings, ReFrames : 8 frames
Codec ID : avc1
Codec ID/Info : Advanced Video Coding
Duration : 1h 37mn
Bit rate : 1 370 Kbps
Maximum bit rate : 5 740 Kbps
Width : 960 pixels
Height : 400 pixels
Display aspect ratio : 2.40:1
Frame rate mode : Constant
Frame rate : 23.976 fps
Color space : YUV
Chroma subsampling : 4:2:0
Bit depth : 8 bits
Scan type : Progressive
Bits/(Pixel*Frame) : 0.149
Stream size : 957 MiB (84%)
Writing library : x264 core 130 r2273 b3065e6
Encoding settings : cabac=1 / ref=8 / deblock=1:-3:-2 / analyse=0x3:0x113 / me=esa / subme=9 / psy=1 / psy_rd=1.00:0.10 / mixed_ref=1 / me_range=32 / chroma_me=1 / trellis=2 / 8x8dct=1 / cqm=0 / deadzone=21,11 / fast_pskip=0 / chroma_qp_offset=-3 / threads=12 / lookahead_threads=2 / sliced_threads=0 / nr=0 / decimate=1 / interlaced=0 / bluray_compat=0 / constrained_intra=0 / bframes=9 / b_pyramid=2 / b_adapt=2 / b_bias=0 / direct=1 / weightb=1 / open_gop=0 / weightp=2 / keyint=250 / keyint_min=25 / scenecut=40 / intra_refresh=0 / rc_lookahead=60 / rc=crf / mbtree=1 / crf=19.0 / qcomp=0.60 / qpmin=0 / qpmax=69 / qpstep=4 / ip_ratio=1.40 / aq=1:0.90
Language : English
Encoded date : UTC 2015-04-04 09:11:01
Tagged date : UTC 2015-04-04 09:11:48

Audio #1
ID : 2
Format : AAC
Format/Info : Advanced Audio Codec
Format profile : LC
Codec ID : 40
Duration : 1h 37mn
Bit rate mode : Variable
Bit rate : 128 Kbps
Maximum bit rate : 135 Kbps
Channel(s) : 2 channels
Channel positions : Front: L R
Sampling rate : 48.0 KHz
Compression mode : Lossy
Stream size : 89.5 MiB (8%)
Title : Dub / Dub
Language : Russian
Encoded date : UTC 2015-04-04 09:11:15
Tagged date : UTC 2015-04-04 09:11:48

Audio #2
ID : 3
Format : AAC
Format/Info : Advanced Audio Codec
Format profile : LC
Codec ID : 40
Duration : 1h 37mn
Bit rate mode : Variable
Bit rate : 128 Kbps
Maximum bit rate : 134 Kbps
Channel(s) : 2 channels
Channel positions : Front: L R
Sampling rate : 48.0 KHz
Compression mode : Lossy
Stream size : 89.5 MiB (8%)
Title : Original / Original
Language : English
Encoded date : UTC 2015-04-04 09:11:37
Tagged date : UTC 2015-04-04 09:11:48

Text #1
ID : 4
Format : Timed Text
Muxing mode : sbtl
Codec ID : tx3g
Duration : 1h 27mn
Bit rate mode : Variable
Bit rate : 1 bps
Stream size : 424 Bytes (0%)
Title : Forced / Forced
Language : Russian
Encoded date : UTC 2015-04-04 09:11:48
Tagged date : UTC 2015-04-04 09:11:48

Text #2
ID : 5
Format : Timed Text
Muxing mode : sbtl
Codec ID : tx3g
Duration : 1h 33mn
Bit rate mode : Variable
Bit rate : 114 bps
Stream size : 78.4 KiB (0%)
Title : Full / Full
Language : Russian
Encoded date : UTC 2015-04-04 09:11:48
Tagged date : UTC 2015-04-04 09:11:48


Трекер:  [ 04-Апр-2015 13:30 ]

  

Скачать .torrent

Размер .torrent файла 11 KB


Размер: 1.12 GB
Хэш (hash) релиза: fe8d525cfd7ff3420dfe5f02beed63a983ec7218

Торренты, похожие на [VIDEO] Несносные боссы Horrible Bosses скачать торрент

Форум Название Автор Размер S L Добавлен
Видео (Фильмы/Клипы) ·· [VIDEO] Несносные боссы 2 / Horrible Bosses 2 (Шон Андерс / Sean Anders) [2014, комедия, HDRip] [MP4, 960x] [Theatrical cut] Dub, VO Пучков, Original, Sub rus Galfimbul 14039029491.31 GB 0 0 1428182295

00:18

5-Апр-15

Еще никто не оставлял запись к записи скачать торрент [VIDEO] Несносные боссы Horrible Bosses . Будь первым!

!Обратная связь