тег Выживание | Literatura | (1 links)

Скачать через торрент [VIDEO] Желтоглазые крокодилы Les yeux jaunes des crocodiles бесплатно русская версия torrent активатор

Статистика раздачи
Размер:  1.32 GB   |    Зарегистрирован:  3 года 3 месяца   |    .torrent скачан:  29 раз   |   
Раздают:  1  
   
загрузка...
 
Автор Сообщение

Galfimbul

avatar Galfimbul


Желтоглазые крокодилы
Les yeux jaunes des crocodiles

Год выпуска: 2014
Страна: США
Жанр: Франция, Испания (Canal+ [fr], Ciné, Instituto de la Cinematografía y de las Artes Audiovisuales (ICAA), Les Films Manuel Munz...)
Продолжительность: 02:02:58
Перевод: Профессиональный (многоголосый, закадровый)
Оригинальная дорожка: Нет
Cубтитры: Нет
Режиссер: Сесиль Телерман / Cécile Telerman
В ролях: Жюли Депардье, Эммануэль Беар, Патрик Брюэль, Alice Isaaz, Жак Вебер, Кароль Роше, Эдит Скоб, Самюэль Ле Бьян, Ким Гутьеррес, Яна Биттнерова
Описание: Две сестры — полная противоположность друг другу. 40-летняя Жозефина занимается изучением средневековой Франции и воспитывает дочерей. Ее муж, хронический безработный, внезапно отправляется с молодой любовницей разводить крокодилов в Кении. Ее сестра Ирис, напротив, светская женщина, красавица, удачно вышедшая замуж. Однажды, чтобы пустить пыль в глаза, она солгала, что пишет роман про 12 век. Вынужденная выкручиваться из ситуации, она предлагает Жозефине, которой очень нужны деньги, написать роман за нее. Никто из них не мог предположить, что книга станет национальным бестселлером…

Качество: HDRip (Рип с BDRip 720p от HDClub)
Формат: MP4
Видео: AVC, 960x520 (1.85:1), 1405 kbps, 23.976 fps
Аудио: Русский, AAC, 2 ch, 48 kHz, 128 kbps [MVO]
x264 [info]: frame I:1572 Avg QP:16.53 size: 80099
x264 [info]: frame P:35813 Avg QP:20.00 size: 18282
x264 [info]: frame B:139530 Avg QP:23.15 size: 3690

x264 [total]: encoded 176915 frames, 6.78 fps, 1404.61 kb/s
General
Complete name : [VIDEO] Les.yeux.jaunes.des.crocodiles.2014.HDRip.x264.960x(semen_52-TNC).mp4
Format : MPEG-4
Format profile : Base Media
Codec ID : isom
File size : 1.32 GiB
Duration : 2h 2mn
Overall bit rate mode : Variable
Overall bit rate : 1 540 Kbps
Movie name : Les yeux jaunes des crocodiles 2014 HDRip x264 960x (semen_52-TNC)
ContentType : Short Film
Encoded date : UTC 2015-04-02 13:41:01
Tagged date : UTC 2015-04-04 08:19:00
Writing application : MkvToMp4 version: 0.224 (x64)
Comment : Rip by semen_52-TNC

Video
ID : 1
Format : AVC
Format/Info : Advanced Video Codec
Format profile : [email protected]
Format settings, CABAC : Yes
Format settings, ReFrames : 8 frames
Codec ID : avc1
Codec ID/Info : Advanced Video Coding
Duration : 2h 2mn
Bit rate : 1 405 Kbps
Maximum bit rate : 13.8 Mbps
Width : 960 pixels
Height : 520 pixels
Display aspect ratio : 1.85:1
Frame rate mode : Constant
Frame rate : 23.976 fps
Color space : YUV
Chroma subsampling : 4:2:0
Bit depth : 8 bits
Scan type : Progressive
Bits/(Pixel*Frame) : 0.117
Stream size : 1.21 GiB (91%)
Writing library : x264 core 130 r2273 b3065e6
Encoding settings : cabac=1 / ref=8 / deblock=1:-3:-3 / analyse=0x3:0x113 / me=esa / subme=9 / psy=1 / psy_rd=1.00:0.15 / mixed_ref=1 / me_range=32 / chroma_me=1 / trellis=2 / 8x8dct=1 / cqm=0 / deadzone=21,11 / fast_pskip=0 / chroma_qp_offset=-3 / threads=12 / lookahead_threads=2 / sliced_threads=0 / nr=0 / decimate=1 / interlaced=0 / bluray_compat=0 / constrained_intra=0 / bframes=8 / b_pyramid=2 / b_adapt=2 / b_bias=0 / direct=1 / weightb=1 / open_gop=0 / weightp=2 / keyint=250 / keyint_min=25 / scenecut=40 / intra_refresh=0 / rc_lookahead=60 / rc=crf / mbtree=1 / crf=20.1 / qcomp=0.60 / qpmin=0 / qpmax=69 / qpstep=4 / ip_ratio=1.40 / aq=1:1.00
Language : English
Encoded date : UTC 2015-04-02 13:41:01
Tagged date : UTC 2015-04-02 13:42:35

Audio
ID : 2
Format : AAC
Format/Info : Advanced Audio Codec
Format profile : LC
Codec ID : 40
Duration : 2h 2mn
Bit rate mode : Variable
Bit rate : 128 Kbps
Maximum bit rate : 133 Kbps
Channel(s) : 2 channels
Channel positions : Front: L R
Sampling rate : 48.0 KHz
Compression mode : Lossy
Stream size : 113 MiB (8%)
Title : MVO / MVO
Language : Russian
Encoded date : UTC 2015-04-02 13:41:26
Tagged date : UTC 2015-04-02 13:42:35


Трекер:  [ 04-Апр-2015 11:30 ]

  

Скачать .torrent

Размер .torrent файла 13 KB


Размер: 1.32 GB
Хэш (hash) релиза: 47fd187607df05347a2344c2d07b78d6e4b14ba1

Еще никто не оставлял запись к записи скачать торрент [VIDEO] Желтоглазые крокодилы Les yeux jaunes des crocodiles . Будь первым!

!Обратная связь