Boku no Kanojo ga Majimesugiru Sho-bitch na Ken | JESSICA MAUBOY | tagЭкранизация

Скачать через торрент [VIDEO] Ночь в музее: Секрет гробницы Night at the Museum: Secret of the Tomb бесплатно русская версия torrent активатор

Статистика раздачи
Размер:  1.22 GB   |    Зарегистрирован:  3 года 3 месяца   |    .torrent скачан:  54 раза   |   
Раздают:  1  
   
загрузка...
 
Автор Сообщение

Galfimbul

avatar Galfimbul


Ночь в музее: Секрет гробницы
Night at the Museum: Secret of the Tomb

Год выпуска: 2014
Страна: США, Великобритания (1492 Pictures, 20th Century Fox Film Corporation, 21 Laps Entertainment...)
Жанр: Фэнтези, комедия, приключения, семейный
Продолжительность: 01:37:48
Перевод: Профессиональный (полное дублирование) [BD EUR]
Оригинальная дорожка: Английский
Cубтитры: Русские отключаемые, форсированные и полные
Режиссер: Шон Леви / Shawn Levy
В ролях: Бен Стиллер, Робин Уильямс, Оуэн Уилсон, Стив Кугэн, Рики Джервэйс, Дэн Стивенс, Ребел Уилсон, Скайлер Джизондо, Рами Малек, Патрик Галлахер, Мицуо Пек, Бен Кингсли, Кристал Манки, Дик Ван Дайк, Микки Руни, Билл Коббс, Андреа Мартин, Рэйчел Харрис, Мэтт Фрюэр, Брэд Гэррет
Описание: Ночной сторож Музея естественной истории в Нью-Йорке Ларри Дэйли в отчаянии: его друзья-экспонаты начинают странно себя вести, а всё потому, что оживляющая их древнеегипетская золотая пластина разрушается. Только отец фараона Ахкменра знает тайну магического артефакта, но вот беда — его мумия далеко, она выставлена в Британском музее естествознания! Команда любимых героев предпринимает беспрецедентное путешествие в Лондон. Они должны объединиться с британскими экспонатами и рискнуть всем, чтобы восстановить золотую пластину до того, как Ларри потеряет своих друзей навсегда.

Качество: HDRip (Рип с BDRip 1080p)
Формат: MP4
Видео: AVC, 960x520 (1.85:1), 1511 kbps, 23.976 fps
Аудио 1: Русский, AAC, 2 ch, 48 kHz, 128 kbps [Dub, BD EUR]
Аудио 2: Английский, AAC, 2 ch, 48 kHz, 128 kbps [Original]
В кадре, где сторож Британского музея передает пластину Ахкменра директору Музея естественной истории в Нью-Йорке видно, что от пластины идет провод.
x264 [info]: frame I:1784 Avg QP:15.74 size: 82339
x264 [info]: frame P:30256 Avg QP:19.21 size: 18027
x264 [info]: frame B:108668 Avg QP:22.40 size: 3830

x264 [total]: encoded 140708 frames, 3.78 fps, 1511.04 kb/s
General
Complete name : [VIDEO] Night.at.the.Museum.Secret.of.the.Tomb.2014.HDRip.x264.960x(semen_52-TNC).mp4
Format : MPEG-4
Format profile : Base Media
Codec ID : isom
File size : 1.22 GiB
Duration : 1h 37mn
Overall bit rate mode : Variable
Overall bit rate : 1 778 Kbps
Movie name : Night at the Museum Secret of the Tomb 2014 HDRip x264 960x
ContentType : Short Film
Encoded date : UTC 2015-04-02 03:51:25
Tagged date : UTC 2015-04-02 18:49:16
Writing application : MkvToMp4 version: 0.224 (x64)
Comment : Rip by semen_52-TNC

Video
ID : 1
Format : AVC
Format/Info : Advanced Video Codec
Format profile : [email protected]
Format settings, CABAC : Yes
Format settings, ReFrames : 8 frames
Codec ID : avc1
Codec ID/Info : Advanced Video Coding
Duration : 1h 37mn
Bit rate : 1 511 Kbps
Maximum bit rate : 10.6 Mbps
Width : 960 pixels
Height : 520 pixels
Display aspect ratio : 1.85:1
Frame rate mode : Constant
Frame rate : 23.976 fps
Color space : YUV
Chroma subsampling : 4:2:0
Bit depth : 8 bits
Scan type : Progressive
Bits/(Pixel*Frame) : 0.126
Stream size : 1.03 GiB (85%)
Writing library : x264 core 130 r2273 b3065e6
Encoding settings : cabac=1 / ref=8 / deblock=1:-3:-3 / analyse=0x3:0x113 / me=esa / subme=9 / psy=1 / psy_rd=1.00:0.15 / mixed_ref=1 / me_range=32 / chroma_me=1 / trellis=2 / 8x8dct=1 / cqm=0 / deadzone=21,11 / fast_pskip=0 / chroma_qp_offset=-3 / threads=12 / lookahead_threads=2 / sliced_threads=0 / nr=0 / decimate=1 / interlaced=0 / bluray_compat=0 / constrained_intra=0 / bframes=9 / b_pyramid=2 / b_adapt=2 / b_bias=0 / direct=1 / weightb=1 / open_gop=0 / weightp=2 / keyint=250 / keyint_min=25 / scenecut=40 / intra_refresh=0 / rc_lookahead=60 / rc=crf / mbtree=1 / crf=19.4 / qcomp=0.60 / qpmin=0 / qpmax=69 / qpstep=4 / ip_ratio=1.40 / aq=1:0.90
Language : English
Encoded date : UTC 2015-04-02 03:51:25
Tagged date : UTC 2015-04-02 03:52:27

Audio #1
ID : 2
Format : AAC
Format/Info : Advanced Audio Codec
Format profile : LC
Codec ID : 40
Duration : 1h 37mn
Bit rate mode : Variable
Bit rate : 128 Kbps
Maximum bit rate : 135 Kbps
Channel(s) : 2 channels
Channel positions : Front: L R
Sampling rate : 48.0 KHz
Compression mode : Lossy
Stream size : 89.6 MiB (7%)
Title : Dub / Dub
Language : Russian
Encoded date : UTC 2015-04-02 03:51:43
Tagged date : UTC 2015-04-02 03:52:27

Audio #2
ID : 3
Format : AAC
Format/Info : Advanced Audio Codec
Format profile : LC
Codec ID : 40
Duration : 1h 37mn
Bit rate mode : Variable
Bit rate : 128 Kbps
Maximum bit rate : 135 Kbps
Channel(s) : 2 channels
Channel positions : Front: L R
Sampling rate : 48.0 KHz
Compression mode : Lossy
Stream size : 89.6 MiB (7%)
Title : Original / Original
Language : English
Encoded date : UTC 2015-04-02 03:52:14
Tagged date : UTC 2015-04-02 03:52:27

Text #1
ID : 4
Format : Timed Text
Muxing mode : sbtl
Codec ID : tx3g
Duration : 1h 37mn
Bit rate mode : Variable
Bit rate : 0 bps
Stream size : 201 Bytes (0%)
Title : Forced / Forced
Language : Russian
Encoded date : UTC 2015-04-02 03:52:27
Tagged date : UTC 2015-04-02 03:52:27

Text #2
ID : 5
Format : Timed Text
Muxing mode : sbtl
Codec ID : tx3g
Duration : 1h 37mn
Bit rate mode : Variable
Bit rate : 105 bps
Stream size : 75.5 KiB (0%)
Title : Full / Full
Language : Russian
Encoded date : UTC 2015-04-02 03:52:27
Tagged date : UTC 2015-04-02 03:52:27


Трекер:  [ 02-Апр-2015 22:00 ]

  

Скачать .torrent

Размер .torrent файла 12 KB


Размер: 1.22 GB
Хэш (hash) релиза: 5f9a50b72282c3bb69409d5ffa0c094b5cf938cf

Еще никто не оставлял запись к записи скачать торрент [VIDEO] Ночь в музее: Секрет гробницы Night at the Museum: Secret of the Tomb . Будь первым!

!Обратная связь