Kamen Rider: Dragon Knight | Scott Allen | EagleHeart

Скачать через торрент [VIDEO] Джеймс Браун: Путь наверх Get on Up бесплатно русская версия torrent активатор

Статистика раздачи
Размер:  1.71 GB   |    Зарегистрирован:  3 года 3 месяца   |    .torrent скачан:  34 раза   |   
Раздают:  1  
   
загрузка...
 
Автор Сообщение

Galfimbul

avatar Galfimbul


Джеймс Браун: Путь наверх
Get on Up

Год выпуска: 2014
Страна: США (Imagine Entertainment, Jagged Films, Wyolah Films)
Жанр: Драма, биография, музыка
Продолжительность: 02:18:50
Перевод: Профессиональный (полное дублирование) [BD EUR]
Оригинальная дорожка: Английский
Cубтитры: Русские отключаемые, форсированные и полные
Режиссер: Тейт Тейлор / Tate Taylor
В ролях: Чэдвик Боузмэн, Нелсан Эллис, Виола Дэвис, Октавия Спенсер, Дэн Эйкройд, Ленни Джеймс, Фред Меламед, Крэйг Робинсон, Джилл Скотт, Джош Хопкинс
Описание: Фильм рассказывает реальную историю американца-легкоатлета Луи Замперини, принявшего участие в Олимпийских играх 1936 года в Берлине. Он не одержал победы в финальном забеге, но снискал расположение Гитлера, который пригласил его к себе в ложу. Предполагалось, что Замперини примет участие и в следующих Олимпийских играх, но из-за начала Второй мировой войны он был вынужден отправиться на фронт. Его самолет потерпел крушение над Тихим океаном, после чего Замперини вместе с двумя сослуживцами провёл 47 дней в дрейфе на плоту, и попал в плен к японцам, где подвергся издевательствам и пыткам. Домой он вернулся уже лишь после окончания войны.

Качество: HDRip (Рип с BDRip 1080p)
Формат: MP4
Видео: AVC, 960x520 (1.85:1), 1494 kbps, 23.976 fps
Аудио 1: Русский, AAC, 2 ch, 48 kHz, 128 kbps [Dub, BD EUR
Аудио 2: Английский, AAC, 2 ch, 48 kHz, 128 kbps [Original]
Премия Гильдии актеров, 2015 год
Номинации (1):
Лучший каскадерский состав
x264 [info]: frame I:1557 Avg QP:15.99 size: 82214
x264 [info]: frame P:45245 Avg QP:19.14 size: 17910
x264 [info]: frame B:152925 Avg QP:22.42 size: 4034

x264 [total]: encoded 199727 frames, 6.23 fps, 1493.52 kb/s
General
Complete name : [VIDEO] Get.on.Up.2014.HDRip.x264.960x(semen_52-TNC).mp4
Format : MPEG-4
Format profile : Base Media
Codec ID : isom
File size : 1.71 GiB
Duration : 2h 18mn
Overall bit rate mode : Variable
Overall bit rate : 1 761 Kbps
Movie name : [VIDEO] Get on Up 2014 HDRip x264 960x(semen_52-TNC)
ContentType : Short Film
Encoded date : UTC 2015-04-02 13:48:02
Tagged date : UTC 2015-04-02 13:51:59
Writing application : MkvToMp4 version: 0.224 (x64)
Comment : Rip by semen_52-TNC

Video
ID : 1
Format : AVC
Format/Info : Advanced Video Codec
Format profile : [email protected]
Format settings, CABAC : Yes
Format settings, ReFrames : 8 frames
Codec ID : avc1
Codec ID/Info : Advanced Video Coding
Duration : 2h 18mn
Bit rate : 1 494 Kbps
Maximum bit rate : 23.0 Mbps
Width : 960 pixels
Height : 520 pixels
Display aspect ratio : 1.85:1
Frame rate mode : Constant
Frame rate : 23.976 fps
Color space : YUV
Chroma subsampling : 4:2:0
Bit depth : 8 bits
Scan type : Progressive
Bits/(Pixel*Frame) : 0.125
Stream size : 1.45 GiB (85%)
Writing library : x264 core 130 r2273 b3065e6
Encoding settings : cabac=1 / ref=8 / deblock=1:-3:-3 / analyse=0x3:0x113 / me=esa / subme=9 / psy=1 / psy_rd=1.00:0.10 / mixed_ref=1 / me_range=32 / chroma_me=1 / trellis=2 / 8x8dct=1 / cqm=0 / deadzone=21,11 / fast_pskip=0 / chroma_qp_offset=-3 / threads=12 / lookahead_threads=2 / sliced_threads=0 / nr=0 / decimate=1 / interlaced=0 / bluray_compat=0 / constrained_intra=0 / bframes=8 / b_pyramid=2 / b_adapt=2 / b_bias=0 / direct=1 / weightb=1 / open_gop=0 / weightp=2 / keyint=250 / keyint_min=25 / scenecut=40 / intra_refresh=0 / rc_lookahead=60 / rc=crf / mbtree=1 / crf=19.5 / qcomp=0.60 / qpmin=0 / qpmax=69 / qpstep=4 / ip_ratio=1.40 / aq=1:0.90
Language : English
Encoded date : UTC 2015-04-02 13:48:02
Tagged date : UTC 2015-04-02 13:50:31

Audio #1
ID : 2
Format : AAC
Format/Info : Advanced Audio Codec
Format profile : LC
Codec ID : 40
Duration : 2h 18mn
Bit rate mode : Variable
Bit rate : 128 Kbps
Maximum bit rate : 135 Kbps
Channel(s) : 2 channels
Channel positions : Front: L R
Sampling rate : 48.0 KHz
Compression mode : Lossy
Stream size : 127 MiB (7%)
Title : Dub / Dub
Language : Russian
Encoded date : UTC 2015-04-02 13:49:41
Tagged date : UTC 2015-04-02 13:50:31

Audio #2
ID : 3
Format : AAC
Format/Info : Advanced Audio Codec
Format profile : LC
Codec ID : 40
Duration : 2h 18mn
Bit rate mode : Variable
Bit rate : 128 Kbps
Maximum bit rate : 135 Kbps
Channel(s) : 2 channels
Channel positions : Front: L R
Sampling rate : 48.0 KHz
Compression mode : Lossy
Stream size : 127 MiB (7%)
Title : Original / Original
Language : English
Encoded date : UTC 2015-04-02 13:50:09
Tagged date : UTC 2015-04-02 13:50:31

Text #1
ID : 4
Format : Timed Text
Muxing mode : sbtl
Codec ID : tx3g
Duration : 2h 18mn
Bit rate mode : Variable
Bit rate : 1 bps
Stream size : 817 Bytes (0%)
Title : Forced / Forced
Language : Russian
Encoded date : UTC 2015-04-02 13:50:31
Tagged date : UTC 2015-04-02 13:50:31

Text #2
ID : 5
Format : Timed Text
Muxing mode : sbtl
Codec ID : tx3g
Duration : 2h 18mn
Bit rate mode : Variable
Bit rate : 87 bps
Stream size : 88.3 KiB (0%)
Title : Full / Full
Language : Russian
Encoded date : UTC 2015-04-02 13:50:31
Tagged date : UTC 2015-04-02 13:50:31


Трекер:  [ 02-Апр-2015 21:30 ]

  

Скачать .torrent

Размер .torrent файла 17 KB


Размер: 1.71 GB
Хэш (hash) релиза: 6dc3ca1da264a79397367a4a186302eadf234d5f

Еще никто не оставлял запись к записи скачать торрент [VIDEO] Джеймс Браун: Путь наверх Get on Up . Будь первым!

!Обратная связь