Подробнее | keyboard_arrow_up | Mechanical Engineering

Скачать через торрент [SERIAL] Фарго Fargo бесплатно русская версия torrent активатор

Статистика раздачи
Размер:  5.47 GB   |    Зарегистрирован:  3 года 3 месяца   |    .torrent скачан:  126 раз   |   
Раздают:  1  
   
загрузка...
 
Автор Сообщение

Galfimbul

avatar Galfimbul


Фарго
Fargo

Год выпуска: 2014
Страна: США (FX Productions, MGM Television)
Жанр: Драма, криминал
Продолжительность: ~ 00:50:00 x 10
Перевод 1: Профессиональный (многоголосый, закадровый) [1-ый Канал] [url=...4862035](отсюда)[/url]
Перевод 2: Профессиональный (многоголосый, закадровый) [Кубик в Кубе]
Перевод 2: Профессиональный (многоголосый, закадровый) [IdeaFilm]
Оригинальная дорожка: Нет
Cубтитры: Нет
Режиссер: Мэтт Шекман / Matt Shakman, Скотт Уинант / Scott Winant, Адам Бернштейн / Adam Bernstein
В ролях: Мартин Фриман, Билли Боб Торнтон, Эллисон Толман, Колин Хэнкс, Боб Оденкёрк, Кит Кэрредин, Джои Кинг, Расселл Харвард, Джошуа Клоуз, Гари Валентайн, Адам Голдберг
Описание: В центре сюжета — страховой агент Лестер Нигард, который влачит свое сонное существование, выполняя нудную работу для скучных людей. Внезапно судьба сводит его с Лорном Малво — странным бродягой, уже успевшим заработать себе репутацию жестокого и опасного человека.

[url=...Fargo%202014]Все раздачи сериала[/url]
Качество: WEB-DLRip (Рип с [url=...4723529]WEB-DL 1080p[/url])
Формат: MP4
Видео: AVC, 960х536 (16:9), 23.976 fps, ~1000 Kbps (20crf)
Аудио 1: Русский, AAC, 48.0 KHz, 2 ch, 128 Kbps [MVO, 1-ый Канал]
Аудио 2: Русский, AAC, 48.0 KHz, 2 ch, 128 Kbps [MVO, Кубик в Кубе]
Аудио 3: Английский, AAC, 48.0 KHz, 2 ch, 128 Kbps [MVO, IdeaFilm]
Билли Боб Торнтон сам придумал прическу своему персонажу.
На самом деле это уже второй спин-офф фильма «Фарго» (1995) в формате теле-шоу. Первый был в 2003 году. В нем в главной роли была Иди Фалько. Был даже выпущен пилотный эпизод, но после этого проект не получил поддержки и был закрыт.
Сценарист Ной Хоули и режиссер Рэндолл Айнхорн подтвердили, что события сериала, также как и фильма, происходят в одной вселенной.
Когда миссис Найгаард поднимает ложку, она в ее левой руке. Когда она опускает ее, то она уже в правой руке.
В шестой серии, когда Лорн Малво стреляет из снайперской винтовки, видно что все окна заклеены газетами, а Малво стреляет используя снайперский прицел.
Сезон 1, серия 8. Когда Молли и Гас лежат в постели перед сном, свет, якобы отбрасываемый включенным телевизором, в действительности не соответствует происходящему на экране. Свет мерцает, а картинка на экране практически статична.
Эпизод 1 - Дилемма крокодила / The Crocodile's Dilemma
Эпизод 2 - Принц-петух / The Rooster Prince
Эпизод 3 - Грязное дельце / A Muddy Road
Эпизод 4 - Съедая улику / Eating the Blame
Эпизод 5 - Шесть непостижимых / The Six Ungraspables
Эпизод 6 - Буриданов осёл / Buridan's Ass
Эпизод 7 - Кто стрижёт парикмахера? / Who Shaves the Barber?
Эпизод 8 - Завал / The Heap
Эпизод 9 - Лисица, заяц и капуста / A Fox, a Rabbit, and a Cabbage
Эпизод 10 - Вилка Мортона / Morton's Fork
x264 [info]: frame I:839 Avg QP:15.38 size: 66271
x264 [info]: frame P:25558 Avg QP:18.60 size: 13323
x264 [info]: frame B:77493 Avg QP:22.06 size: 2413

x264 [total]: encoded 103890 frames, 9.27 fps, 1076.52 kb/s
General
Complete name : Fargo.2014.S01.WEB-DLRip.x264.960x(semen_52-TNC)2\Fargo.S01E01.2014.WEB-DLRip.x264.960x(semen_52-TNC)2.mp4
Format : MPEG-4
Format profile : Base Media
Codec ID : isom
File size : 761 MiB
Duration : 1h 12mn
Overall bit rate mode : Variable
Overall bit rate : 1 472 Kbps
Collection : Fargo
Season : 1
Part : 1
Part/Position : 1
Track name/Position : 1
ContentType : TV Show
Encoded date : UTC 2015-04-01 17:33:15
Tagged date : UTC 2015-04-01 17:34:09
Writing application : MkvToMp4 [version: 0.224 (x64)
Comment : Rip by semen_52-TNC
Title/Sort : Fargo

Video
ID : 1
Format : AVC
Format/Info : Advanced Video Codec
Format profile : [email protected]
Format settings, CABAC : Yes
Format settings, ReFrames : 8 frames
Codec ID : avc1
Codec ID/Info : Advanced Video Coding
Duration : 1h 12mn
Bit rate : 1 077 Kbps
Maximum bit rate : 6 157 Kbps
Width : 960 pixels
Height : 536 pixels
Display aspect ratio : 16:9
Frame rate mode : Constant
Frame rate : 23.976 fps
Color space : YUV
Chroma subsampling : 4:2:0
Bit depth : 8 bits
Scan type : Progressive
Bits/(Pixel*Frame) : 0.087
Stream size : 556 MiB (73%)
Writing library : x264 core 130 r2273 b3065e6
Encoding settings : cabac=1 / ref=8 / deblock=1:-3:-3 / analyse=0x3:0x133 / me=esa / subme=9 / psy=1 / psy_rd=1.00:0.15 / mixed_ref=1 / me_range=32 / chroma_me=1 / trellis=2 / 8x8dct=1 / cqm=0 / deadzone=21,11 / fast_pskip=0 / chroma_qp_offset=-3 / threads=12 / lookahead_threads=2 / sliced_threads=0 / nr=0 / decimate=1 / interlaced=0 / bluray_compat=0 / constrained_intra=0 / bframes=6 / b_pyramid=2 / b_adapt=2 / b_bias=0 / direct=1 / weightb=1 / open_gop=0 / weightp=2 / keyint=250 / keyint_min=25 / scenecut=40 / intra_refresh=0 / rc_lookahead=60 / rc=crf / mbtree=1 / crf=20.0 / qcomp=0.60 / qpmin=0 / qpmax=69 / qpstep=4 / ip_ratio=1.40 / aq=1:1.00
Language : English
Encoded date : UTC 2015-04-01 17:33:15
Tagged date : UTC 2015-04-01 17:33:36

Audio #1
ID : 2
Format : AAC
Format/Info : Advanced Audio Codec
Format profile : LC
Codec ID : 40
Duration : 1h 10mn
Bit rate mode : Variable
Bit rate : 128 Kbps
Maximum bit rate : 135 Kbps
Channel(s) : 2 channels
Channel positions : Front: L R
Sampling rate : 48.0 KHz
Compression mode : Lossy
Stream size : 64.4 MiB (8%)
Title : MVO 1st Channel / MVO 1st Channel
Language : Russian
Encoded date : UTC 2015-04-01 17:33:25
Tagged date : UTC 2015-04-01 17:33:36

Audio #2
ID : 3
Format : AAC
Format/Info : Advanced Audio Codec
Format profile : LC
Codec ID : 40
Duration : 1h 12mn
Bit rate mode : Variable
Bit rate : 128 Kbps
Maximum bit rate : 135 Kbps
Channel(s) : 2 channels
Channel positions : Front: L R
Sampling rate : 48.0 KHz
Compression mode : Lossy
Stream size : 66.1 MiB (9%)
Title : MVO Kubik v kube / MVO Kubik v kube
Language : Russian
Encoded date : UTC 2015-04-01 17:33:29
Tagged date : UTC 2015-04-01 17:33:36

Audio #3
ID : 4
Format : AAC
Format/Info : Advanced Audio Codec
Format profile : LC
Codec ID : 40
Duration : 1h 12mn
Bit rate mode : Variable
Bit rate : 128 Kbps
Maximum bit rate : 135 Kbps
Channel(s) : 2 channels
Channel positions : Front: L R
Sampling rate : 48.0 KHz
Compression mode : Lossy
Stream size : 66.1 MiB (9%)
Title : MVO Ideafilm / MVO Ideafilm
Language : Russian
Encoded date : UTC 2015-04-01 17:33:33
Tagged date : UTC 2015-04-01 17:33:36


Трекер:  [ 01-Апр-2015 21:00 ]

  

Скачать .torrent

Размер .torrent файла 28 KB


Размер: 5.47 GB
Хэш (hash) релиза: ce7f20403b8bc265ae40c0f92a4b0646df862e24

Еще никто не оставлял запись к записи скачать торрент [SERIAL] Фарго Fargo . Будь первым!

!Обратная связь