(21 links) | The Glades | Macarena Garcia De La Camacha

Скачать через торрент [VIDEO] Мисс Медоуз Miss Meadows бесплатно русская версия torrent активатор

Статистика раздачи
Размер:  916 MB   |    Зарегистрирован:  3 года 3 месяца   |    .torrent скачан:  33 раза   |   
Раздают:  1  
   
загрузка...
 
Автор Сообщение

Galfimbul

avatar Galfimbul


Мисс Медоуз
Miss Meadows

Год выпуска: 2014
Страна: США
Жанр: Драма, триллер
Продолжительность: 01:27:44
Перевод: Профессиональный (многоголосый, закадровый) [iTunes Russia]
Оригинальная дорожка: Нет
Cубтитры: Нет
Режиссер: Карен Ли Хопкинс / Karen Leigh Hopkins
В ролях: Кэти Холмс, Джеймс Бэдж Дэйл, Каллэн Мулвей, Стефен Бишоп, Тайлер Корбет, Сайда Аррика Экулона, Милли Хопкинс, Джеймс Хеберт, Ава Колкер, Шарлотта Лабади
Описание: История об учителе начальной школы, который в тайне является ярым борцом с преступностью.

Качество: HDRip (Рип с BDRip 1080p)
Формат: MP4
Видео: AVC, 960x536 (16:9), 1324 kbps, 23.976 fps
Аудио: Русский, AAC, 2 ch, 48 kHz, 128 kbps [MVO]
x264 [info]: frame I:1187 Avg QP:15.98 size: 79886
x264 [info]: frame P:26174 Avg QP:19.24 size: 18376
x264 [info]: frame B:98856 Avg QP:22.49 size: 2986

x264 [total]: encoded 126217 frames, 7.07 fps, 1323.66 kb/s
General
Complete name : [VIDEO] Miss.Meadows.2014.HDRip.x264.960x(semen_52-TNC).mp4
Format : MPEG-4
Format profile : Base Media
Codec ID : isom
File size : 916 MiB
Duration : 1h 27mn
Overall bit rate mode : Variable
Overall bit rate : 1 459 Kbps
Movie name : [VIDEO] Miss Meadows 2014 HDRip x264 960x(semen_52-TNC)
ContentType : Short Film
Encoded date : UTC 2015-03-30 16:54:47
Tagged date : UTC 2015-03-30 16:55:34
Writing application : MkvToMp4 version: 0.224 (x64)
Comment : Rip by semen_52-TNC

Video
ID : 1
Format : AVC
Format/Info : Advanced Video Codec
Format profile : [email protected]
Format settings, CABAC : Yes
Format settings, ReFrames : 8 frames
Codec ID : avc1
Codec ID/Info : Advanced Video Coding
Duration : 1h 27mn
Bit rate : 1 324 Kbps
Maximum bit rate : 7 581 Kbps
Width : 960 pixels
Height : 536 pixels
Display aspect ratio : 16:9
Frame rate mode : Constant
Frame rate : 23.976 fps
Color space : YUV
Chroma subsampling : 4:2:0
Bit depth : 8 bits
Scan type : Progressive
Bits/(Pixel*Frame) : 0.107
Stream size : 831 MiB (91%)
Writing library : x264 core 130 r2273 b3065e6
Encoding settings : cabac=1 / ref=8 / deblock=1:-3:-2 / analyse=0x3:0x113 / me=esa / subme=9 / psy=1 / psy_rd=1.00:0.15 / mixed_ref=1 / me_range=32 / chroma_me=1 / trellis=2 / 8x8dct=1 / cqm=0 / deadzone=21,11 / fast_pskip=0 / chroma_qp_offset=-3 / threads=12 / lookahead_threads=2 / sliced_threads=0 / nr=0 / decimate=1 / interlaced=0 / bluray_compat=0 / constrained_intra=0 / bframes=9 / b_pyramid=2 / b_adapt=2 / b_bias=0 / direct=1 / weightb=1 / open_gop=0 / weightp=2 / keyint=250 / keyint_min=25 / scenecut=40 / intra_refresh=0 / rc_lookahead=60 / rc=crf / mbtree=1 / crf=20.0 / qcomp=0.60 / qpmin=0 / qpmax=69 / qpstep=4 / ip_ratio=1.40 / aq=1:1.00
Language : English
Encoded date : UTC 2015-03-30 16:54:47
Tagged date : UTC 2015-03-30 16:55:03

Audio
ID : 2
Format : AAC
Format/Info : Advanced Audio Codec
Format profile : LC
Codec ID : 40
Duration : 1h 27mn
Bit rate mode : Variable
Bit rate : 128 Kbps
Maximum bit rate : 135 Kbps
Channel(s) : 2 channels
Channel positions : Front: L R
Sampling rate : 48.0 KHz
Compression mode : Lossy
Stream size : 80.3 MiB (9%)
Title : MVO / MVO
Language : Russian
Encoded date : UTC 2015-03-30 16:54:59
Tagged date : UTC 2015-03-30 16:55:03


Трекер:  [ 31-Мар-2015 00:00 ]

  

Скачать .torrent

Размер .torrent файла 18 KB


Размер: 916 MB
Хэш (hash) релиза: f7bcefff6223d64f56e952a0967487fc17a2a787

Торренты, похожие на [VIDEO] Мисс Медоуз Miss Meadows скачать торрент

Форум Название Автор Размер S L Добавлен
Видео (Фильмы/Клипы) ·· [VIDEO] Мисс Медоуз / Miss Meadows (Карен Ли Хопкинс) [2014, триллер, драма, BDRip] [MP4, 1280x] Galfimbul 16621190641.55 GB 0 0 1451224823

17:00

27-Дек-15

Еще никто не оставлял запись к записи скачать торрент [VIDEO] Мисс Медоуз Miss Meadows . Будь первым!

!Обратная связь