Fortune Arterial: Akai Yakusoku | Latest chapter | Arata Iura

Скачать через торрент [VIDEO] Гайвер Guyver бесплатно русская версия torrent активатор

Статистика раздачи
Размер:  986 MB   |    Зарегистрирован:  3 года 3 месяца   |    .torrent скачан:  38 раз   |   
Раздают:  1  
   
загрузка...
 
Автор Сообщение

Galfimbul

avatar Galfimbul


Гайвер
Guyver

Год выпуска: 1991
Страна: США (Original Film )
Жанр: Фантастика, боевик, комедия
Продолжительность: 01:32:47
Перевод 1: Авторский (одноголосый, закадровый) [В. Горчаков]
Перевод 2: Авторский (одноголосый, закадровый) [А. Гаврилов (ранний)]
Перевод 3: Авторский (одноголосый, закадровый) [А. Гаврилов (поздний)]
Оригинальная дорожка: Английский [отдельным файлом]
Cубтитры: Русские отключаемые, полные [внешние]
Режиссер: Скримин Мэд Джордж / Screaming Mad George, Стив Ванг / Steve Wang
В ролях: Грег Пайк, Джимми Уолкер, Peter Spellos, Майкл Берриман, Спайс Уильямс, Марк Хэмилл, Джек Армстронг, Johnnie, Saiko, Вивиан Ву, Дебора Горман
Описание: Инопланетяне прибыли на Землю, чтобы создать новое органическое оружие - человеческий разум. Инплантируя в человеческий мозг дополнительный ген, они превращают людей в непобедимых монстров. Только альтернативное оружие - «Гайвер» может противостоять порабощению. «Гайвер» представляет собой некий биокостюм, стократно увеличивающий прыткость и силу носителя. Случайным обладателем 'Гайвера' становится обыкновенный студент, изучающий каратэ.

Качество: DVDRip (Рип с [url=...586467]DVD5[/url])
Формат: MP4
Видео: AVC, 640x352 (16:9), 956 kbps, 23.976 fps
Аудио 1: Русский, AAC, 2 ch, 48 kHz, 128 kbps [AVO, В. Горчаков]
Аудио 2: Русский, AAC, 2 ch, 48 kHz, 128 kbps [AVO, А. Гаврилов (ранний)]
Аудио 3: Русский, AAC, 2 ch, 48 kHz, 128 kbps [AVO, А. Гаврилов (поздний)]
Аудио 4: Английский, AAC, 2 ch, 48 kHz, 128 kbps [Original] [отдельным файлом]
Джеффри Комбс игравший доктора Уэста в фильме «Реаниматор» (1985), здесь играет персонажа под именем «доктор Уэст». Его босса здесь играет актёр Дэвид Гэйл, который также играл злодея в «Реаниматоре» (1985).
В фильме используется около 50 различных эффектов для создания монстров.
x264 [info]: frame I:1333 Avg QP:17.45 size: 35423
x264 [info]: frame P:37851 Avg QP:21.04 size: 9659
x264 [info]: frame B:94293 Avg QP:24.15 size: 2677

x264 [total]: encoded 133477 frames, 21.57 fps, 955.98 kb/s
General
Complete name : Gujver.1991.DVDRip.x264.640x(semen_52-TNC)\[VIDEO] Guyver.1991.DVDRip.x264.640x(semen_52-TNC).mp4
Format : MPEG-4
Format profile : Base Media
Codec ID : isom
File size : 900 MiB
Duration : 1h 32mn
Overall bit rate mode : Variable
Overall bit rate : 1 355 Kbps
Movie name : [VIDEO] The Guyver 1991 DVDRip x264 640x(semen_52-TNC)
ContentType : Short Film
Encoded date : UTC 2015-03-21 20:19:46
Tagged date : UTC 2015-03-21 20:42:20
Writing application : MkvToMp4 version: 0.224 (x64)
Comment : Rip by semen_52-TNC

Video
ID : 1
Format : AVC
Format/Info : Advanced Video Codec
Format profile : [email protected]
Format settings, CABAC : Yes
Format settings, ReFrames : 8 frames
Codec ID : avc1
Codec ID/Info : Advanced Video Coding
Duration : 1h 32mn
Bit rate : 956 Kbps
Maximum bit rate : 4 082 Kbps
Width : 640 pixels
Height : 352 pixels
Display aspect ratio : 16:9
Frame rate mode : Constant
Frame rate : 23.976 fps
Color space : YUV
Chroma subsampling : 4:2:0
Bit depth : 8 bits
Scan type : Progressive
Bits/(Pixel*Frame) : 0.177
Stream size : 634 MiB (71%)
Writing library : x264 core 130 r2273 b3065e6
Encoding settings : cabac=1 / ref=8 / deblock=1:-2:-1 / analyse=0x3:0x113 / me=umh / subme=10 / psy=1 / psy_rd=1.00:0.15 / mixed_ref=1 / me_range=24 / chroma_me=1 / trellis=2 / 8x8dct=1 / cqm=0 / deadzone=21,11 / fast_pskip=0 / chroma_qp_offset=-3 / threads=12 / lookahead_threads=2 / sliced_threads=0 / nr=0 / decimate=0 / interlaced=0 / bluray_compat=0 / constrained_intra=0 / bframes=3 / b_pyramid=2 / b_adapt=2 / b_bias=0 / direct=3 / weightb=1 / open_gop=0 / weightp=2 / keyint=250 / keyint_min=23 / scenecut=40 / intra_refresh=0 / rc_lookahead=60 / rc=2pass / mbtree=1 / bitrate=956 / ratetol=1.0 / qcomp=0.60 / qpmin=0 / qpmax=69 / qpstep=4 / cplxblur=20.0 / qblur=0.5 / vbv_maxrate=17500 / vbv_bufsize=14000 / nal_hrd=none / ip_ratio=1.40 / aq=1:1.00
Language : English
Encoded date : UTC 2015-03-21 20:19:46
Tagged date : UTC 2015-03-21 20:20:50

Audio #1
ID : 2
Format : AAC
Format/Info : Advanced Audio Codec
Format profile : LC
Codec ID : 40
Duration : 1h 32mn
Bit rate mode : Variable
Bit rate : 128 Kbps
Maximum bit rate : 132 Kbps
Channel(s) : 2 channels
Channel positions : Front: L R
Sampling rate : 48.0 KHz
Compression mode : Lossy
Stream size : 84.9 MiB (9%)
Title : AVO Gorchakov / AVO Gorchakov
Language : Russian
Encoded date : UTC 2015-03-21 20:19:57
Tagged date : UTC 2015-03-21 20:20:50

Audio #2
ID : 3
Format : AAC
Format/Info : Advanced Audio Codec
Format profile : LC
Codec ID : 40
Duration : 1h 32mn
Bit rate mode : Variable
Bit rate : 128 Kbps
Maximum bit rate : 135 Kbps
Channel(s) : 2 channels
Channel positions : Front: L R
Sampling rate : 48.0 KHz
Compression mode : Lossy
Stream size : 84.9 MiB (9%)
Title : AVO Gavrilov _old_ / AVO Gavrilov _old_
Language : Russian
Encoded date : UTC 2015-03-21 20:20:26
Tagged date : UTC 2015-03-21 20:20:50

Audio #3
ID : 4
Format : AAC
Format/Info : Advanced Audio Codec
Format profile : LC
Codec ID : 40
Duration : 1h 32mn
Bit rate mode : Variable
Bit rate : 128 Kbps
Maximum bit rate : 134 Kbps
Channel(s) : 2 channels
Channel positions : Front: L R
Sampling rate : 48.0 KHz
Compression mode : Lossy
Stream size : 84.9 MiB (9%)
Title : AVO Gavrilov _new_ / AVO Gavrilov _new_
Language : Russian
Encoded date : UTC 2015-03-21 20:20:39
Tagged date : UTC 2015-03-21 20:20:50


Трекер:  [ 22-Мар-2015 00:00 ]

  

Скачать .torrent

Размер .torrent файла 20 KB


Размер: 986 MB
Хэш (hash) релиза: 4b5c4a0d654dc4c5cb38d3d0653420766947bd1b

Еще никто не оставлял запись к записи скачать торрент [VIDEO] Гайвер Guyver . Будь первым!

!Обратная связь