JusquÀ La Garde | DVDSeed | DSD | Movies | 2018 Review | Darker than Black: Kuro no Keiyakusha | 480p | BDRip | Dual Audio

Скачать через торрент [VIDEO] Неоспоримый: Трилогия Undisputed: Trilogy бесплатно русская версия torrent активатор

Статистика раздачи
Размер:  3.79 GB   |    Зарегистрирован:  3 года 3 месяца   |    .torrent скачан:  134 раза   |   
Раздают:  1  
   
загрузка...
 
Автор Сообщение

Galfimbul

avatar Galfimbul


Неоспоримый: Трилогия
Undisputed: Trilogy

Год выпуска: 2002, 2006, 2010
Страна: Германия, США
Жанр: Боевик, драма, криминал, спорт
Продолжительность: 01:33:40, 01:37:35, 01:36:02
Режиссер (часть): Уолтер Хилл / Walter Hill (1), Айзек Флорентайн / Isaac Florentine (2, 3)
Неоспоримый / Обсуждению не подлежит
Undisputed

Год выпуска: 2002
Страна: Германия, США (Amen Ra Films, Hollywood Partners Munich, Millennium Films, Miramax Films, Motion Picture Corporation of America (MPCA), Undisputed Productions)
Жанр: Боевик, драма, криминал, спорт
Продолжительность: 01:33:40
Перевод 1: Профессиональный (многоголосый, закадровый) [R5]
Перевод 2: Профессиональный (многоголосый, закадровый)
Режиссер: Уолтер Хилл / Walter Hill
В ролях: Уэсли Снайпс, Винг Реймз, Питер Фальк, Майкл Рукер, Джон Седа, Уэс Стьюди, Фишер Стивенс, Дэйтон Калли, Эми Акино, Джонни Уильямс
Описание: Получив срок за изнасилование и лишившись своего звездного титула, чемпион по боксу в тяжелом весе Джордж Чемберс оказывается в знаменитой своими жестокими порядками тюрьме Свитуотэр, где уже 10 лет неприкасаемым чемпионом является грозный Монро Хатчинс.
Непобедимый Чемберс знает, что в мире нет боксера лучше него, и он готов это доказать. Но и Хатчинс не собирается проигрывать. Это поединок не на жизнь, а на смерть.

Качество: BDRip (Рип с [url=...3915548]BD Remux 1080p[/url])
Формат: MP4
Видео: AVC, 960х408 (2.35:1), 1764 kbps, 23.976 fps
Аудио №1: Русский, AAC, 2 ch, 48 kHz, 128 kbps [DVO, R5]
Аудио №2: Русский, AAC, 2 ch, 48 kHz, 128 kbps [DVO]
x264 [info]: frame I:719 Avg QP:19.77 size: 48792
x264 [info]: frame P:26595 Avg QP:23.62 size: 16179
x264 [info]: frame B:107355 Avg QP:24.56 size: 7199

x264 [total]: encoded 134669 frames, 3.74 fps, 1763.57 kb/s
General
Complete name : Undisputed.Trilogy.BDRip.x264.960x.(semen_52-TNC)\[VIDEO] Undisputed.2002.BDRip.x264.960x(semen_52-TNC).mp4
Format : MPEG-4
Format profile : Base Media
Codec ID : isom
File size : 1.33 GiB
Duration : 1h 33mn
Overall bit rate mode : Variable
Overall bit rate : 2 029 Kbps
Movie name : [VIDEO] Undisputed 2002 BDRip x264 960x(semen_52-TNC)
ContentType : Short Film
Encoded date : UTC 2015-03-21 14:40:32
Tagged date : UTC 2015-03-21 14:41:57
Writing application : MkvToMp4 version: 0.224 (x64)
Comment : Rip by semen_52-TNC

Video
ID : 1
Format : AVC
Format/Info : Advanced Video Codec
Format profile : [email protected]
Format settings, CABAC : Yes
Format settings, ReFrames : 8 frames
Codec ID : avc1
Codec ID/Info : Advanced Video Coding
Duration : 1h 33mn
Bit rate : 1 764 Kbps
Maximum bit rate : 7 089 Kbps
Width : 960 pixels
Height : 408 pixels
Display aspect ratio : 2.35:1
Frame rate mode : Constant
Frame rate : 23.976 fps
Color space : YUV
Chroma subsampling : 4:2:0
Bit depth : 8 bits
Scan type : Progressive
Bits/(Pixel*Frame) : 0.188
Stream size : 1.15 GiB (87%)
Writing library : x264 core 130 r2273 b3065e6
Encoding settings : cabac=1 / ref=8 / deblock=1:-3:-3 / analyse=0x3:0x133 / me=esa / subme=10 / psy=1 / psy_rd=1.00:0.15 / mixed_ref=1 / me_range=32 / chroma_me=1 / trellis=2 / 8x8dct=1 / cqm=0 / deadzone=21,11 / fast_pskip=0 / chroma_qp_offset=-3 / threads=12 / lookahead_threads=2 / sliced_threads=0 / nr=0 / decimate=1 / interlaced=0 / bluray_compat=0 / constrained_intra=0 / bframes=11 / b_pyramid=2 / b_adapt=2 / b_bias=0 / direct=1 / weightb=1 / open_gop=0 / weightp=2 / keyint=250 / keyint_min=25 / scenecut=40 / intra_refresh=0 / rc_lookahead=60 / rc=crf / mbtree=1 / crf=20.7 / qcomp=0.60 / qpmin=0 / qpmax=69 / qpstep=4 / ip_ratio=1.40 / aq=1:0.90 / zones=124825,134669,q=35
Language : English
Encoded date : UTC 2015-03-21 14:40:32
Tagged date : UTC 2015-03-21 14:41:20

Audio #1
ID : 2
Format : AAC
Format/Info : Advanced Audio Codec
Format profile : LC
Codec ID : 40
Duration : 1h 33mn
Bit rate mode : Variable
Bit rate : 128 Kbps
Maximum bit rate : 133 Kbps
Channel(s) : 2 channels
Channel positions : Front: L R
Sampling rate : 48.0 KHz
Compression mode : Lossy
Stream size : 85.7 MiB (6%)
Title : DVO R5 / DVO R5
Language : Russian
Encoded date : UTC 2015-03-21 14:40:48
Tagged date : UTC 2015-03-21 14:41:20

Audio #2
ID : 3
Format : AAC
Format/Info : Advanced Audio Codec
Format profile : LC
Codec ID : 40
Duration : 1h 33mn
Bit rate mode : Variable
Bit rate : 128 Kbps
Maximum bit rate : 134 Kbps
Channel(s) : 2 channels
Channel positions : Front: L R
Sampling rate : 48.0 KHz
Compression mode : Lossy
Stream size : 85.8 MiB (6%)
Title : DVO / DVO
Language : Russian
Encoded date : UTC 2015-03-21 14:41:08
Tagged date : UTC 2015-03-21 14:41:20
Неоспоримый 2
Undisputed 2: Last Man Standing

Год выпуска: 2006
Страна: США (Millennium Films, Nu-Image Films)
Жанр: Боевик, драма, криминал, спорт
Продолжительность: 01:37:35
Перевод: Профессиональный (многоголосый, закадровый) [R5]
Режиссер: Айзек Флорентайн / Isaac Florentine
В ролях: Майкл Джей Уайт, Скотт Эдкинс, Бен Кросс, Эли Данкер, Марк Иванир, Кен Лернер, Дэйзи Лэнг, Сильвио Шимач, Ивайло Герасков, Валентин Ганев
Описание: Бывший чемпион мира по боксу во время визита в Россию случайно попадает в криминальную разборку, связанную с высшими правительственными чинами и против него фабрикуется ложное дело. Дорога домой будет долгой и трудной, проходящей через суровую российскую тюрьму…

Качество: BDRip (Рип с [url=...3915719]BD Remux 1080p[/url])
Формат: MP4
Видео: AVC, 960х520 (1.85:1), 1765 kbps, 23.976 fps
Аудио: Русский, AAC, 2 ch, 48 kHz, 128 kbps [MVO, R5]
x264 [info]: frame I:1179 Avg QP:19.44 size: 58984
x264 [info]: frame P:28866 Avg QP:23.04 size: 17042
x264 [info]: frame B:110353 Avg QP:24.05 size: 6617

x264 [total]: encoded 140398 frames, 2.73 fps, 1764.68 kb/s
General
Complete name : Undisputed.Trilogy.BDRip.x264.960x.(semen_52-TNC)\[VIDEO] Undisputed.2.2006.BDRip.x264.960x(semen_52-TNC).mp4
Format : MPEG-4
Format profile : Base Media
Codec ID : isom
File size : 1.30 GiB
Duration : 1h 37mn
Overall bit rate mode : Variable
Overall bit rate : 1 900 Kbps
Movie name : [VIDEO] Undisputed 2 2006 BDRip x264 960x(semen_52-TNC)
ContentType : Short Film
Encoded date : UTC 2015-03-21 14:37:38
Tagged date : UTC 2015-03-21 14:38:55
Writing application : MkvToMp4 version: 0.224 (x64)
Comment : Rip by semen_52-TNC

Video
ID : 1
Format : AVC
Format/Info : Advanced Video Codec
Format profile : [email protected]
Format settings, CABAC : Yes
Format settings, ReFrames : 8 frames
Codec ID : avc1
Codec ID/Info : Advanced Video Coding
Duration : 1h 37mn
Bit rate : 1 765 Kbps
Maximum bit rate : 7 098 Kbps
Width : 960 pixels
Height : 520 pixels
Display aspect ratio : 1.85:1
Frame rate mode : Constant
Frame rate : 23.976 fps
Color space : YUV
Chroma subsampling : 4:2:0
Bit depth : 8 bits
Scan type : Progressive
Bits/(Pixel*Frame) : 0.147
Stream size : 1.20 GiB (93%)
Writing library : x264 core 130 r2273 b3065e6
Encoding settings : cabac=1 / ref=8 / deblock=1:-2:-1 / analyse=0x3:0x133 / me=esa / subme=9 / psy=1 / psy_rd=1.00:0.00 / mixed_ref=1 / me_range=32 / chroma_me=1 / trellis=2 / 8x8dct=1 / cqm=0 / deadzone=21,11 / fast_pskip=0 / chroma_qp_offset=-2 / threads=12 / lookahead_threads=2 / sliced_threads=0 / nr=0 / decimate=1 / interlaced=0 / bluray_compat=0 / constrained_intra=0 / bframes=10 / b_pyramid=2 / b_adapt=2 / b_bias=0 / direct=1 / weightb=1 / open_gop=0 / weightp=2 / keyint=250 / keyint_min=25 / scenecut=40 / intra_refresh=0 / rc_lookahead=60 / rc=crf / mbtree=1 / crf=21.5 / qcomp=0.60 / qpmin=0 / qpmax=69 / qpstep=4 / ip_ratio=1.40 / aq=1:1.00 / zones=135230,140398,q=35
Language : English
Encoded date : UTC 2015-03-21 14:37:38
Tagged date : UTC 2015-03-21 14:38:23

Audio
ID : 2
Format : AAC
Format/Info : Advanced Audio Codec
Format profile : LC
Codec ID : 40
Duration : 1h 37mn
Bit rate mode : Variable
Bit rate : 128 Kbps
Maximum bit rate : 135 Kbps
Channel(s) : 2 channels
Channel positions : Front: L R
Sampling rate : 48.0 KHz
Compression mode : Lossy
Stream size : 89.3 MiB (7%)
Title : MVO R5 / MVO R5
Language : Russian
Encoded date : UTC 2015-03-21 14:37:57
Tagged date : UTC 2015-03-21 14:38:23
Неоспоримый 3
Undisputed III: Redemption

Год выпуска: 2010
Страна: США (Nu-Image Films, Undisputed 3 Productions)
Жанр: Боевик, драма, криминал, спорт
Продолжительность: 01:36:02
Перевод 1: Профессиональный (многоголосый, закадровый) [R5]
Перевод 2: Авторский (одноголосый, закадровый) [Д. Строев]
Оригинальная дорожка: Английский
Cубтитры: Русские отключаемые, полные
Режиссер: Айзек Флорентайн / Isaac Florentine
В ролях: Скотт Эдкинс, Майкл Шеннон Дженкинс, Марк Иванир, Христо Шопов, Марко Зарор, Майкл Бэрал, Илрам Чои, Роберт Костанцо, Латиф Кроудер, Эстебан Куето
Описание: Юрий Бойка - российский чемпион подпольных боев без правил, постепенно оправляющийся от полученной в последнем поединке травмы, решает вернуться на ринг. После победы над нынешним чемпионом тюрьмы «Чёрные Холмы», его босс - Гага - решает отправить его на международный чемпионат тюремных поединков. Поврежденное колено дает о себе знать в каждом бою и беспокоит Бойку, но он готов пройти до конца, чтобы сразиться с колумбийским бойцом и доказать, что он неоспоримый.

Качество: BDRip (Рип с [url=...3423646]BD Remux 1080p[/url])
Формат: MP4
Видео: AVC, 960х536 (16:9), 1348 kbps, 23.976 fps
Аудио №1: Русский, AAC, 2 ch, 48 kHz, 128 kbps [MVO, R5]
Аудио №2: Русский, AAC, 2 ch, 48 kHz, 128 kbps [AVO, Д. Строев]
Аудио №3: Английский, AAC, 2 ch, 48 kHz, 128 kbps [Original]
x264 [info]: frame I:1206 Avg QP:16.28 size: 58460
x264 [info]: frame P:34338 Avg QP:20.29 size: 14571
x264 [info]: frame B:102600 Avg QP:22.94 size: 3897

x264 [total]: encoded 138144 frames, 6.54 fps, 1347.72 kb/s
General
Complete name : Undisputed.Trilogy.BDRip.x264.960x.(semen_52-TNC)\[VIDEO] Undisputed.3.Redemption.2010.BDRip.x264.960x(semen_52-TNC).mp4
Format : MPEG-4
Format profile : Base Media
Codec ID : isom
File size : 1.17 GiB
Duration : 1h 36mn
Overall bit rate mode : Variable
Overall bit rate : 1 746 Kbps
Movie name : [VIDEO] Undisputed 3 Redemption 2010 BDRip x264 960x(semen_52-TNC)
ContentType : Short Film
Encoded date : UTC 2015-03-21 14:34:05
Tagged date : UTC 2015-03-21 14:36:02
Writing application : MkvToMp4 version: 0.224 (x64)
Comment : Rip by semen_52-TNC

Video
ID : 1
Format : AVC
Format/Info : Advanced Video Codec
Format profile : [email protected]
Format settings, CABAC : Yes
Format settings, ReFrames : 8 frames
Codec ID : avc1
Codec ID/Info : Advanced Video Coding
Duration : 1h 36mn
Bit rate : 1 348 Kbps
Maximum bit rate : 6 729 Kbps
Width : 960 pixels
Height : 536 pixels
Display aspect ratio : 16:9
Frame rate mode : Constant
Frame rate : 23.976 fps
Color space : YUV
Chroma subsampling : 4:2:0
Bit depth : 8 bits
Scan type : Progressive
Bits/(Pixel*Frame) : 0.109
Stream size : 926 MiB (77%)
Writing library : x264 core 130 r2273 b3065e6
Encoding settings : cabac=1 / ref=8 / deblock=1:-2:-1 / analyse=0x3:0x133 / me=esa / subme=9 / psy=1 / psy_rd=1.00:0.00 / mixed_ref=1 / me_range=32 / chroma_me=1 / trellis=2 / 8x8dct=1 / cqm=0 / deadzone=21,11 / fast_pskip=0 / chroma_qp_offset=-2 / threads=12 / lookahead_threads=2 / sliced_threads=0 / nr=0 / decimate=1 / interlaced=0 / bluray_compat=0 / constrained_intra=0 / bframes=10 / b_pyramid=2 / b_adapt=2 / b_bias=0 / direct=1 / weightb=1 / open_gop=0 / weightp=2 / keyint=250 / keyint_min=25 / scenecut=40 / intra_refresh=0 / rc_lookahead=60 / rc=crf / mbtree=1 / crf=20.0 / qcomp=0.60 / qpmin=0 / qpmax=69 / qpstep=4 / ip_ratio=1.40 / aq=1:1.00 / zones=133370,138144,q=35
Language : English
Encoded date : UTC 2015-03-21 14:34:05
Tagged date : UTC 2015-03-21 14:35:22

Audio #1
ID : 2
Format : AAC
Format/Info : Advanced Audio Codec
Format profile : LC
Codec ID : 40
Duration : 1h 36mn
Bit rate mode : Variable
Bit rate : 128 Kbps
Maximum bit rate : 135 Kbps
Channel(s) : 2 channels
Channel positions : Front: L R
Sampling rate : 48.0 KHz
Compression mode : Lossy
Stream size : 87.9 MiB (7%)
Title : MVO R5 / MVO R5
Language : Russian
Encoded date : UTC 2015-03-21 14:34:19
Tagged date : UTC 2015-03-21 14:35:22

Audio #2
ID : 3
Format : AAC
Format/Info : Advanced Audio Codec
Format profile : LC
Codec ID : 40
Duration : 1h 36mn
Bit rate mode : Variable
Bit rate : 128 Kbps
Maximum bit rate : 133 Kbps
Channel(s) : 2 channels
Channel positions : Front: L R
Sampling rate : 48.0 KHz
Compression mode : Lossy
Stream size : 87.9 MiB (7%)
Title : VO Stroev / VO Stroev
Language : Russian
Encoded date : UTC 2015-03-21 14:34:57
Tagged date : UTC 2015-03-21 14:35:22

Audio #3
ID : 4
Format : AAC
Format/Info : Advanced Audio Codec
Format profile : LC
Codec ID : 40
Duration : 1h 36mn
Bit rate mode : Variable
Bit rate : 128 Kbps
Maximum bit rate : 135 Kbps
Channel(s) : 2 channels
Channel positions : Front: L R
Sampling rate : 48.0 KHz
Compression mode : Lossy
Stream size : 87.9 MiB (7%)
Title : Original / Original
Language : English
Encoded date : UTC 2015-03-21 14:35:10
Tagged date : UTC 2015-03-21 14:35:22

Text
ID : 5
Format : Timed Text
Muxing mode : sbtl
Codec ID : tx3g
Duration : 1h 32mn
Bit rate mode : Variable
Bit rate : 56 bps
Stream size : 38.0 KiB (0%)
Title : Full / Full
Language : Russian
Encoded date : UTC 2015-03-21 14:35:22
Tagged date : UTC 2015-03-21 14:35:22


Трекер:  [ 21-Мар-2015 19:30 ]

  

Скачать .torrent

Размер .torrent файла 19 KB


Размер: 3.79 GB
Хэш (hash) релиза: 21466051f582871c4cb34cf48545db80a6e3f803

Еще никто не оставлял запись к записи скачать торрент [VIDEO] Неоспоримый: Трилогия Undisputed: Trilogy . Будь первым!

!Обратная связь