Comédia | Kamen Rider Wizard BD Box | Umimonogatari: Anata ga Ite Kureta Koto

Скачать через торрент музыку Как из обычной девушки воспитать героиню Saenai Heroine no Sodatekata бесплатно без регистрации torrent

Статистика раздачи
Размер:  165 MB   |    Зарегистрирован:  3 года 4 месяца   |    .torrent скачан:  33 раза   |   
Раздают:  1  
   
загрузка...
 
Автор Сообщение

Galfimbul

avatar Galfimbul


Как из обычной девушки воспитать героиню / Saenai Heroine no Sodatekata

Название альбома: Blessing Software Special CD Vol.1
Композитор: Hajime Hyakkoku, yamazo, Kosuke Okui
Год выпуска: 2015 г.
Страна: Япония
Аудио кодек: FLAC (*.flac)
Тип рипа: tracks
Битрейт аудио: lossless
Продолжительность: 00:23:34
Наличие сканов в содержимом раздачи: да
01 LOVE iLLUSiON 4:05
02 LOVE iLLUSiON (Off Vocal Ver.) 4:05
03 Main subject 2:17
04 Encounter (Piano Solo Ver.) 2:16
05 I go my way 1:46
06 I wonder if I'm exactly the 1:28
07 Nonstop talk 1:42
08 Comical suspense 1:36
09 Be frustrated 1:39
10 The 1st of enhancement 2:19
Exact Audio Copy V1.0 beta 4 from 7. December 2014

EAC extraction logfile from 5. March 2015, 14:03

- / blessing SOFTWARE -SPECIAL CD VOL.1- (Character Song & Mini Soundtrack)

Used drive : HL-DT-STBDDVDRW GBC-H20L Adapter: 1 ID: 0

Read mode : SecureUtilize accurate stream : YesDefeat audio cache : YesMake use of C2 pointers : No

Read offset correction : 667Overread into Lead-In and Lead-Out : NoFill up missing offset samples with silence : YesDelete leading and trailing silent blocks : NoNull samples used in CRC calculations : YesUsed interface : Native Win32 interface for Win NT & 2000Gap handling : Appended to previous track

Used output format : Internal WAV RoutinesSample format : 44.100 Hz; 16 Bit; Stereo

TOC of the extracted CD

Track | Start | Length | Start sector | End sector --------------------------------------------------------- 1 | 0:00.00 | 4:07.32 | 0 | 18556 2 | 4:07.32 | 4:07.71 | 18557 | 37152 3 | 8:15.28 | 2:19.43 | 37153 | 47620 4 | 10:34.71 | 2:18.14 | 47621 | 57984 5 | 12:53.10 | 1:48.13 | 57985 | 66097 6 | 14:41.23 | 1:30.42 | 66098 | 72889 7 | 16:11.65 | 1:43.65 | 72890 | 80679 8 | 17:55.55 | 1:38.34 | 80680 | 88063 9 | 19:34.14 | 1:41.13 | 88064 | 95651 10 | 21:15.27 | 2:19.17 | 95652 | 106093

Track 1

Filename .\01 LOVE iLLUSiON.wav

Pre-gap length 0:00:02.00

Peak level 99.6 % Extraction speed 3.7 X Track quality 100.0 % Copy CRC 1AB44C74 Copy OK

Track 2

Filename .\02 LOVE iLLUSiON (Off Vocal Ver.).wav

Pre-gap length 0:00:02.11

Peak level 99.6 % Extraction speed 4.0 X Track quality 100.0 % Copy CRC A4DDEF09 Copy OK

Track 3

Filename .\03 メインテーマ.wav

Pre-gap length 0:00:02.49

Peak level 99.6 % Extraction speed 4.0 X Track quality 100.0 % Copy CRC 3AE7A703 Copy OK

Track 4

Filename .\04 出会い (Piano Solo Ver.).wav

Pre-gap length 0:00:02.12

Peak level 99.6 % Extraction speed 4.2 X Track quality 100.0 % Copy CRC FCA8FF5C Copy OK

Track 5

Filename .\05 わが道を行く.wav

Pre-gap length 0:00:01.49

Peak level 99.6 % Extraction speed 3.8 X Track quality 100.0 % Copy CRC AECD18D5 Copy OK

Track 6

Filename .\06 まったくなんだかなあ.wav

Pre-gap length 0:00:01.71

Peak level 99.6 % Extraction speed 3.8 X Track quality 100.0 % Copy CRC 4DB28386 Copy OK

Track 7

Filename .\07 マシンガントーク.wav

Pre-gap length 0:00:02.11

Peak level 99.6 % Extraction speed 4.0 X Track quality 100.0 % Copy CRC 38B92215 Copy OK

Track 8

Filename .\08 コミカルサスペンス.wav

Pre-gap length 0:00:01.49

Peak level 99.6 % Extraction speed 4.1 X Track quality 100.0 % Copy CRC 2C90E242 Copy OK

Track 9

Filename .\09 失意.wav

Pre-gap length 0:00:02.11

Peak level 81.8 % Extraction speed 4.2 X Track quality 100.0 % Copy CRC 21939E89 Copy OK

Track 10

Filename .\10 充実の一日.wav

Pre-gap length 0:00:01.49

Peak level 99.6 % Extraction speed 5.0 X Track quality 100.0 % Copy CRC 97800F05 Copy OK

No errors occurred

End of status report

---- CUETools DB Plugin V2.1.4

[CTDB TOCID: cYtaZ0Nw.PJR4HrZ6n6SlhFs.E4-] foundSubmit result: already submittedTrack | CTDB Status 1 | (3/3) Accurately ripped 2 | (3/3) Accurately ripped 3 | (3/3) Accurately ripped 4 | (3/3) Accurately ripped 5 | (3/3) Accurately ripped 6 | (3/3) Accurately ripped 7 | (3/3) Accurately ripped 8 | (3/3) Accurately ripped 9 | (3/3) Accurately ripped 10 | (3/3) Accurately ripped
Доп. информация: Диск поставляется вместе с blue-ray версией нулевого эпизода аниме. Дата выхода: 4 марта.

Трекер:  [ 17-Мар-2015 21:30 ]

  

Скачать .torrent

Размер .torrent файла 14 KB


Размер: 165 MB
Хэш (hash) релиза: 75d9e9f6a12e294e420b45e64a5c3ac092a39a09

Еще никто не оставлял запись к записи скачать торрент Как из обычной девушки воспитать героиню Saenai Heroine no Sodatekata . Будь первым!

!Обратная связь