Ripper Street | TERLUKA - LILIN HERLINA - NEW PALLAPA | Google ポッドキャスト

Скачать через торрент музыку Love Live! School Idol Project бесплатно без регистрации torrent

Статистика раздачи
Размер:  28.3 GB   |    Зарегистрирован:  3 года 4 месяца   |    .torrent скачан:  42 раза   |   
Раздают:  1  
   
загрузка...
 
Автор Сообщение

Galfimbul

avatar Galfimbul


Love Live! School Idol Project / ラブライブ! School idol project
Год выпуска: 2013-2015 г.
Страна: Япония
Продолжительность: 55.37.37
Аудио кодек: FLAC (*.flac)
Тип рипа: image+.cue/tracks
Описание: раздача музыки, связанной с аниме Love Live!, Love Live! 2.
Обновляться будет по мере появления дисков в сети.
[spoiler="[AR] Love Live! OP Single - Bokura wa Ima no Naka de"]
Дата выпуска: 23 января 2013 г.
Каталог: LACM-14053
Тип рипа: image+.cue
Продолжительность: 17.57
Наличие сканов в содержимом раздачи: да
Треклист:
1) Bokura wa Ima no Naka de;
2) WILD STARS;
3) Bokura wa Ima no Naka de (Off Vocal);
4) WILD STARS (Off Vocal).
Video Attributes:
Video compression mode: MPEG-2
TV system: 525/60 (NTSC)
Aspect Ratio: 16:9
Display Mode: Both Pan&scan and Letterbox
Source picture resolution: 720x480 (525/60)
Frame Rate: 30.00
Source picture letterboxed: Not letterboxed
Bitrate: 4.21Mbps

Audio Attributes:
Audio Coding mode: LPCM
Sampling Rate: 48kHz
Audio application mode: Not Specified
Number of Audio channels: 2.0
Bitrate: 1536 Kbps
Number of Audio streams: 1
[spoiler="[AR] Love Live! ED Single - Kitto Seishun ga Kikoeru"]
Дата выпуска: 6 февраля 2013 г.
Каталог: LACM-14054
Тип рипа: image+.cue
Продолжительность: 17.26
Наличие сканов в содержимом раздачи: да
Треклист:
1) Kitto Seishun ga Kikoeru;
2) Kaguya no Shiro de Odoritai;
3) Kitto Seishun ga Kikoeru (Off Vocal);
4) Kaguya no Shiro de Odoritai (Off Vocal).[/spoiler]
[spoiler="[AR] Love Live! - Susume Tomorrow, START DASH!!"]
Дата выпуска: 20 февраля 2013 г.
Каталог: LACM-14055
Тип рипа: image+.cue
Продолжительность: 17.50
Наличие сканов в содержимом раздачи: да
Треклист:
1) Susume Tomorrow;
2) START:DASH!!;
3) Susume Tomorrow (Off Vocal);
4) START:DASH!! (Off Vocal).[/spoiler]
[spoiler="[AR] Love Live! - Kore kara no Someday, Wonder zone"]
Дата выпуска: 6 марта 2013 г.
Каталог: LACM-14064
Тип рипа: image+.cue
Продолжительность: 16.55
Наличие сканов в содержимом раздачи: да
Треклист:
1) Kore kara no Someday;
2) Wonder zone;
3) Kore kara no Someday (Off Vocal);
4) Wonder zone (Off Vocal).[/spoiler]
[spoiler="[AR] Love Live! - No Brand girls, START DASH!!"]
Дата выпуска: 3 апреля 2013 г.
Каталог: LACM-14069
Тип рипа: image+.cue
Продолжительность: 16.59
Наличие сканов в содержимом раздачи: да
Треклист:
1) No brand girls;
2) START: DASH!!;
3) No brand girls (Off Vocal);
4) START:DASH!! (Off Vocal).
Exact Audio Copy V1.0 beta 3 from 29. August 2011

EAC extraction logfile from 2. April 2013, 20:15

μ's / No brand girls / START: DASH!!

Used drive : HL-DT-STDVDRAM GH24NS90 Adapter: 1 ID: 0

Read mode : SecureUtilize accurate stream : YesDefeat audio cache : YesMake use of C2 pointers : No

Read offset correction : 6Overread into Lead-In and Lead-Out : NoFill up missing offset samples with silence : YesDelete leading and trailing silent blocks : NoNull samples used in CRC calculations : YesUsed interface : Native Win32 interface for Win NT & 2000

Used output format : Internal WAV RoutinesSample format : 44.100 Hz; 16 Bit; Stereo

TOC of the extracted CD

Track | Start | Length | Start sector | End sector --------------------------------------------------------- 1 | 0:00.00 | 4:07.42 | 0 | 18566 2 | 4:07.42 | 4:19.63 | 18567 | 38054 3 | 8:27.30 | 4:07.30 | 38055 | 56609 4 | 12:34.60 | 4:18.07 | 56610 | 75966

Range status and errors

Selected range

Filename C:\Users\FK\Documents\新增資料夾\μ's - No brand girls , START- DASH!!.wav

Peak level 100.0 % Extraction speed 1.3 X Range quality 100.0 % Test CRC 9E39EA5D Copy CRC 9E39EA5D Copy OK

No errors occurred

End of status report

---- CUETools DB Plugin V2.1.3

[CTDB TOCID: wMiNIIEXEjOb7nivXpBvCEPjxP0-] disk not present in database, Submit result: wMiNIIEXEjOb7nivXpBvCEPjxP0- has been uploaded

==== Log checksum 541FAE584590628E94EB154614C3614F12005CA14E0810F9031B05B147BB6B16 ====
[/spoiler]
[spoiler="[AR] Love Live! Original Soundtrack - Notes of School idol days"]
Дата выпуска: 10 апреля 2013 г.
Каталог: LACA-9281~2
Тип рипа: image+.cue
Продолжительность: 2.25.06
Наличие сканов в содержимом раздачи: да
Продолжительность: 1.14.01
Треклист:
1) 始まりの朝;
2) (絶望);
3) 僕らは今のなかで(TVサイズ)[オープニングテーマ];
4) ルンルン↑どんより;
5) ゆったりお昼休み;
6) ん???;
7) 過ぎ去りし日々;
8) 朝練;
9) Private Wars;
10) 理事長への談判;
11) 愛してるばんざーい!;
12) 幼き日の夕陽;
13) ススメ→トゥモロウ(TVサイズ);
14) 前回のラブライブ!;
15) チグハグ;
16) 気まずい空気;
17) 作戦会議;
18) チェイス;
19) きらめき;
20) 憂いの夕暮れ;
21) 桜並木の通学路;
22) 真剣な眼差し;
23) START:DASH!!(Prepro Piano Mix)[第2話挿入歌];
24) きっと青春が聞こえる(TVサイズ・ことほのうみ)[第2話エンディングテーマ];
25) トホホ…;
26) 友情;
27) 作戦開始;
28) 誰もいない;
29) START:DASH!!(TVサイズ)[第3話挿入歌];
30) 悲しみの夜;
31) 軽やかな昼下がり;
32) 花陽の決意;
33) 楽しい部活;
34) きっと青春が聞こえる(TVサイズ・まきりんぱな)[第4話エンディングテーマ].
Продолжительность: 1.11.05
Треклист:
1) 不審者、にこ;
2) >ω</;
3) 説明しましょう!;
4) 強き者;
5) にこの過去;
6) きっと青春が聞こえる(TVサイズ・にこソロ)[第5話エンディングテーマ];
7) これからのSomeday(TVサイズ)[第6話挿入歌];
8) きっと青春が聞こえる(TVサイズ・にこりんぱなまきことほのうみ)[第6話エンディングテーマ];
9) ラブライブ!開催!!;
10) 亜里沙;
11) きっと青春が聞こえる(TVサイズ・えりのぞ)[第7話挿入歌];
12) 明日の勝利のために;
13) 絵里のやりたいこと;
14) μ'sのはじまり;
15) 僕らのLIVE 君とのLIFE(TVサイズ)[第8話挿入歌];
16) メイド喫茶;
17) ミナリンスキー;
18) 大切なもの;
19) Wonder zone(TVサイズ)[第9話挿入歌];
20) きっと青春が聞こえる(TVサイズ・ことりソロ)[第9話エンディングテーマ];
21) アブないMermaid festa;
22) ドタバタコメディ;
23) 逆境からのスタート;
24) No brand girls(TVサイズ)[第11話挿入歌];
25) 嵐の予感;
26) 未練;
27) はなればなれ;
28) きっと青春が聞こえる(TVサイズ・穂乃果ソロ)[第12話挿入歌];
29) 新しい場所へ;
30) アキバ探訪;
31) アキバの日常;
32) Dance! Dance! Dance!;
33) START:DASH!!(TVサイズ)[第13話挿入歌];
34) きっと青春が聞こえる(TVサイズ)[第3・8・10・11・13話エンディングテーマ].
[/spoiler]
[spoiler="[AR] Love Live! BD1 Original Song CD"]
Дата выпуска: 22 марта 2013 г.
Каталог: BCXA-0697
Тип рипа: image+.cue
Продолжительность: 08.11
Наличие сканов в содержимом раздачи: да
Треклист:
1) Yume Naki Yume wa Yume Janai;
2) Yume Naki Yume wa Yume Janai (Off Vocal).[/spoiler]
[spoiler="[AR] Love Live! BD2 Original Song CD"]
Дата выпуска: 24 апреля 2013 г.
Каталог: BCXA-0698
Тип рипа: image+.cue
Продолжительность: 07.35
Наличие сканов в содержимом раздачи: да
Треклист:
1) Anemone heart;
2) Anemone heart (Off Vocal).[/spoiler]
Дата выпуска: 28 мая 2013 г.
Каталог: BCXA-0699
Тип рипа: image+.cue
Продолжительность: 12.04
Наличие сканов в содержимом раздачи: да
Треклист:
1) なわとび;
2) なわとび (Off Vocal).
Дата выпуска: 21 июня 2013 г.
Каталог: BCXA-0700
Тип рипа: image+.cue
Продолжительность: 08.23
Наличие сканов в содержимом раздачи: да
Треклист:
1) Beat in Angel;
2) Beat in Angel (Off Vocal).
Дата выпуска: 26 июля 2013 г.
Каталог: BCXA-0701
Тип рипа: image+.cue
Продолжительность: 08.48
Наличие сканов в содержимом раздачи: да
Треклист:
1) にこぷり(白抜きハート)女子道;
2) にこぷり(白抜きハート)女子道 (Off Vocal).
[spoiler="[AR] Love Live! BD6 Original Song CD"]
Дата выпуска: 28 августа 2013 г.
Каталог: BCXA-0702
Тип рипа: image+.cue
Продолжительность: 09.08
Наличие сканов в содержимом раздачи: да
Треклист:
1) 硝子の花園;
2) 硝子の花園 (Off Vocal).[/spoiler]
[spoiler="[AR] Love Live! BD7 Original Song CD"]
Дата выпуска: 25 сентября 2013 г.
Каталог: BCXA-0703
Тип рипа: image+.cue
Продолжительность: 09.58
Наличие сканов в содержимом раздачи: да
Треклист:
1) LONELIEST BABY;
2) LONELIEST BABY (off vocal).[/spoiler]
Дата выпуска: 25 сентября 2013 г.
Каталог: BCXA-0704
Тип рипа: image+.cue
Продолжительность: 07.21
Наличие сканов в содержимом раздачи: да
Треклист:
1) puwapuwa-a!;
2) puwapuwa-a! (Off Vocal).
[/spoiler]
[spoiler="[AR] Love Live! 2 OP Single - Sore wa Bokutachi no Kiseki"]
Дата выпуска: 23 апреля 2014 г.
Каталог: LACM-14220
Тип рипа: image+.cue
Продолжительность: 19.46
Наличие сканов в содержимом раздачи: да
Треклист:
1) れは僕たちの奇跡;
2) だってだって噫無情;
3) それは僕たちの奇跡 (Off Vocal);
4) だってだって噫無情 (Off Vocal).
Q:\Onimu OST & Japunese muzik\Sorted\Love Live!\Season 2\Love Live! 2 OP Single - Sore wa Bokutachi no Kiseki\VIDEO_TS\VTS_01_1.VOB
General
Complete name : Q:\Onimu OST & Japunese muzik\Sorted\Love Live!\Season 2\Love Live! 2 OP Single - Sore wa Bokutachi no Kiseki\VIDEO_TS\VTS_01_1.VOB
Format : MPEG-PS
File size : 99.8 MiB
Duration : 1mn 33s
Overall bit rate mode : Variable
Overall bit rate : 8 997 Kbps
Video #224
ID : 224 (0xE0)
Format : MPEG Video
Format version : Version 2
Format profile : [email protected]
Format settings, BVOP : Yes
Format settings, Matrix : Custom
Format settings, GOP : Variable
Duration : 1mn 33s
Bit rate mode : Variable
Bit rate : 7 282 Kbps
Maximum bit rate : 9 800 Kbps
Width : 720 pixels
Height : 480 pixels
Display aspect ratio : 16:9
Frame rate : 29.970 fps
Standard : NTSC
Color space : YUV
Chroma subsampling : 4:2:0
Bit depth : 8 bits
Compression mode : Lossy
Bits/(Pixel*Frame) : 0.703
Time code of first frame : 00:59:59:00
Time code source : Group of pictures header
Stream size : 80.8 MiB (81%)
Audio #189-160
ID : 189 (0xBD)-160 (0xA0)
Format : PCM
Format settings, Endianness : Big
Format settings, Sign : Signed
Muxing mode : DVD-Video
Duration : 1mn 33s
Bit rate mode : Constant
Bit rate : 1 536 Kbps
Channel count : 2 channels
Sampling rate : 48.0 KHz
Bit depth : 16 bits
Stream size : 17.0 MiB (17%)
Menu
[spoiler="[AR] Love Live! 2 ED Single - Donna Toki mo Zutto"]
Дата выпуска: 8 мая 2014 г.
Каталог: LACM-14230
Тип рипа: image+.cue
Продолжительность: 16.45
Наличие сканов в содержимом раздачи: да
Треклист:
1) Donna Toki mo Zutto;
2) COLORFUL VOICE;
3) Donna Toki mo Zutto (Off Vocal);
4) COLORFUL VOICE (Off Vocal).[/spoiler]
[spoiler="[AR] Love Live! 2 - Kira-Kira Sensation"]
Дата выпуска: 9 июля 2014 г.
Каталог: LACM-14243
Тип рипа: image+.cue
Продолжительность: 19.57
Наличие сканов в содержимом раздачи: да
Треклист:
1) KiRa-KiRa Sensation!;
2) Happy maker!;
3) KiRa-KiRa Sensation! (Off Vocal);
4) Happy maker! (Off Vocal).[/spoiler]
[spoiler="[AR] Love Live! 2 - Love wing bell, Dancing stars on me!"]
Дата выпуска: 11 июня 2014 г.
Каталог: LACM-14242
Тип рипа: image+.cue
Продолжительность: 18.49
Наличие сканов в содержимом раздачи: да
Треклист:
1) Love wing bell;
2) Dancing stars on me!;
3) Love wing bell (Off Vocal);
4) Dancing stars on me! (Off Vocal).[/spoiler]
[spoiler="[AR] Love Live! 2 - Yume no Tobira"]
Дата выпуска: 28 мая 2014 г.
Каталог: LACM-14241
Тип рипа: image+.cue
Продолжительность: 17.49
Наличие сканов в содержимом раздачи: да
Треклист:
1) Yume no Tobira;
2) SENTIMENTAL StepS;
3) Yume no Tobira (Off Vocal);
4) SENTIMENTAL StepS (Off Vocal).[/spoiler]
[spoiler="[AR] Love Live! 2 BD1 Original Song CD"]
Дата выпуска: 20 июня 2014 г.
Каталог: BCXA-0839
Тип рипа: image+.cue
Продолжительность: 7.43
Наличие сканов в содержимом раздачи: да
Треклист:
1) Shiawase Iki no SMILING!;
2) Shiawase Iki no SMILING! (Off Vocal).[/spoiler]
[spoiler="[AR] Love Live! 2 BD2 Original Song CD"]
Дата выпуска: 25 июля 2014 г.
Каталог: BCXA-0840
Тип рипа: image+.cue
Продолжительность: 8.40
Наличие сканов в содержимом раздачи: да
Треклист:
1) Zurui yo Magnetic today;
2) Zurui yo Magnetic today (Off Vocal).[/spoiler]
[spoiler="[AR] Love Live! 2 BD3 Original Song CD"]
Дата выпуска: 27 августа 2014 г.
Каталог: BCXA-0841
Тип рипа: image+.cue
Продолжительность: 9.52
Наличие сканов в содержимом раздачи: да
Треклист:
1) Kururin MIRACLE;
2) Kururin MIRACLE (Off Vocal).[/spoiler]
[spoiler="[AR] Love Live! 2 BD4 Original Song CD"]
Дата выпуска: 24 сентября 2014 г.
Каталог: BCXA-0842
Тип рипа: image+.cue
Продолжительность: 9.04
Наличие сканов в содержимом раздачи: да
Треклист:
1) Storm in Lover;
2) Storm in Lover (Off Vocal).[/spoiler]
[spoiler="[AR] Love Live! 2 BD5 Original Song CD"]
Дата выпуска: 29 октября 2014 г.
Каталог: BCXA-0843
Тип рипа: image+.cue
Продолжительность: 10.37
Наличие сканов в содержимом раздачи: да
Треклист:
1) Moshimo kara Kitto;
2) Moshimo kara Kitto (Off Vocal).[/spoiler]
[spoiler="[AR] Love Live! 2 BD6 Original Song CD"]
Дата выпуска: 21 ноября 2014 г.
Каталог: BCXA-0844
Тип рипа: image+.cue
Продолжительность: 9.44
Наличие сканов в содержимом раздачи: да
Треклист:
1) Suki Desu ga Suki Desu ka;
2) Suki Desu ga Suki Desu ka (Off Vocal).[/spoiler]
[spoiler="[AR] Love Live! 2 Original Soundtrack Notes of School idol days ~Glory~"]
Дата выпуска: 27 августа 2014 г.
Каталог: LACA-9356~7
Тип рипа: image+.cue
Продолжительность: 2.01.33
Наличие сканов в содержимом раздачи: да
Продолжительность: 57.28
Треклист:
1) 新生徒会長登場 (LM51);
2) これまでのラブライブ! ~ミュージカルver.~ (LM15H) [第1話挿入歌];
3) What!? (LM52);
4) ⋯寄り道してかない? (LM53);
5) 残された時間 (LM54);
6) それは僕たちの奇跡 (TVサイズ);
7) 大変です!!! (TM02);
8) のどかな田舎 (LM55);
9) すってんにころりん (LM56);
10) プレッシャーに押しつぶされて (LM57);
11) いつもどんなときも、全員のために (LMOP);
12) どんなときもずっと (TVサイズ・のぞえりにこ) [第2話エンディングテーマ];
13) 海未のセクシー・ドレス (TM03);
14) A-RISEとの対峙 (LM58);
15) Shocking Party [第3話挿入歌];
16) ユメノトビラ (TVサイズ) [第3話挿入歌];
17) どんなときもずっと (TVサイズ) [第3話エンディングテーマ];
18) 緊迫 (LM59);
19) 肉屋のにこちゃん (TM04);
20) にこ登場⋯? (TM01);
21) 業-カルマ- (LM60);
22) どんなときもずっと (TVサイズ・にこソロ) [第4話エンディングテーマ];
23) 新リーダー凛ですわ! (LM61);
24) 凛の戸惑い (LM62);
25) Love wing bell (TVサイズ) [第5話挿入歌];
26) どんなときもずっと (TVサイズ・凛ソロ) [第5話エンディングテーマ];
27) ハロウィーン・ストリート (LM64);
28) 他人になりきれ (LM63);
29) Rock me baby! (TM06);
30) お祭り気分で盛り上がれ! (TM07);
31) 軽やかな昼下がりB (LM02 TypeB);
32) Dancing stars on me! (TVサイズ) [第6話挿入歌];
33) どんなときもずっと (TVサイズ・まきりんぱな) [第6話エンディングテーマ].
Продолжительность: 1.04.05
Треклист:
1) 生徒会のお仕事 (LM65);
2) どんなときもずっと (TVサイズ・ことほのうみ) [第7話エンディングテーマ];
3) 銀幕の中のロマンス (LM66);
4) 希の胸の内 (LM67);
5) どんなときもずっと (TVサイズ・のぞまきえり) [第8話エンディングテーマ];
6) みんなが支えてくれる (LM69);
7) 雪の降る街 (LM68);
8) Snow halation (TVサイズ) [第9話挿入歌];
9) 初詣 (LM74);
10) ツバサと穂乃果 (LM75);
11) お餅つき (LM76);
12) どんなときもずっと (TVサイズ・穂乃果ソロ) [第10話エンディングテーマ];
13) すぐ先にある未来 (LM77);
14) この先の私たち (LM73 EDアレンジ);
15) よーし、遊ぶぞー! (LM78);
16) 友情ノーチェンジ (BGM);
17) どんなときもずっと (TVサイズ・全員合唱) [第11話エンディングテーマ];
18) ラブライブ!決勝 (LM70);
19) KiRa-KiRa Sensation! (TVサイズ) [第12話挿入歌];
20) 夢のあと (LM71);
21) 僕らは今のなかで (TVサイズ) [第12話アンコール];
22) 愛してるばんざーい! (Piano Mix) [第13話挿入歌];
23) Oh,Love&Peace! (TVサイズ) [第13話挿入歌];
24) Happy maker! (TVサイズ) [第13話挿入歌];
25) これまでのラブライブ!~ミュージカルver.~ (Off Vocal) (LM15H);
26) ハラショー! (TM05) ※未使用音源;
27) 迫り来る者 (PM01);
28) 謎の影を追って (PM02);
29) Mysterious Girl (PM03);
30) Shocking Party (TVサイズ) [第3話挿入歌];
31) Shocking Party (Off Vocal).
[/spoiler]
[/spoiler]
[spoiler="[AR] Love Live! Unit Single 1st session BiBi - Diamond Princess no Yuutsu"]
Дата выпуска: 22 июня 2011 г.
Каталог: LACM-4816
Тип рипа: image+.cue
Продолжительность: 25.42
Наличие сканов в содержимом раздачи: да
Треклист:
1) Diamond Princess no Yuutsu;
2) Love Novels;
3) Diamond Princess no Yuutsu (Off Vocal);
4) Love Novels (Off Vocal);
5) Ame no hi no Renshuu wa.
[spoiler="[AR] Love Live! Unit Single 1st session lily white - Shiranai Love Oshiete Love"]
Дата выпуска: 27 июля 2011 г.
Каталог: LACM-4832
Тип рипа: image+.cue
Продолжительность: 27.06
Наличие сканов в содержимом раздачи: да
Треклист:
1) Shiranai Love*Oshiete Love;
2) A-NO-NE-GA-N-BA-RE!;
3) Shiranai Love*Oshiete Love (Off Vocal);
4) A-NO-NE-GA-N-BA-RE! (Off Vocal);
5) Minna de Mizugi o Erandara.[/spoiler]
[spoiler="[AR] Love Live! Unit Single 1st session Printemps - Love marginal"]
Дата выпуска: 25 мая 2011 год
Каталог: LACM-4812
Тип рипа: image+.cue
Продолжительность: 28.30
Наличие сканов в содержимом раздачи: да
Треклист:
1) Love marginal;
2) sweet&sweet holiday;
3) Love marginal (Off Vocal);
4) sweet&sweet holiday (Off Vocal);
5) Yaritai Akushukai!.[/spoiler]
[spoiler="[AR] Love Live! Unit Single 2nd session lily white - Binetsu kara Mystery"]
Дата выпуска: 26 июня 2013 г.
Каталог: LACM-14101
Тип рипа: image+.cue
Продолжительность: 27.25
Наличие сканов в содержимом раздачи: да
Треклист:
1) 微熱からMystery;
2) キミのくせに!;
3) 微熱からMystery -Off Vocal-;
4) キミのくせに! -Off Vocal-;
5) プールでトレーニング!? -Mini Drama-.[/spoiler]
[spoiler="[AR] Love Live! Unit Single 2nd session BiBi - Cutie Panther"]
Дата выпуска: 24 июля 2013 г.
Каталог: LACM-14102
Тип рипа: image+.cue
Продолжительность: 33.05
Наличие сканов в содержимом раздачи: да
Треклист:
1) Cutie Panther
2) 夏、終わらないで。
3) Cutie Panther (Off Vocal)
4) 夏、終わらないで。 (Off Vocal)
5) プールでウェイトレス!? (ミニドラマ).[/spoiler]
[spoiler="[AR] Love Live! Unit Single 2nd session Printemps - Pure girls project"]
Дата выпуска: 21 августа 2013 г.
Каталог: LACM-14103
Тип рипа: image+.cue
Продолжительность: 07.35
Наличие сканов в содержимом раздачи: да
Треклист:
1) Pure girls project;
2) UNBALANCED LOVE;
3) Pure girls project(Off Vocal);
4) UNBALANCED LOVE(Off Vocal);
5) プールでオンステージ!(ミニドラマ).[/spoiler]
[spoiler="[AR] Love Live! Unit Single 3rd session lily white - Aki no Anata no Sora Tooku"]
Дата выпуска: 26 ноября 2014 г.
Каталог: LACM-14292
Тип рипа: image+.cue
Продолжительность: 40.17
Наличие сканов в содержимом раздачи: да
Треклист:
1) 秋のあなたの空遠く;
2) ふたりハピネス;
3) 秋のあなたの空遠く (Off Vocal);
4) ふたりハピネス (Off Vocal);
5) 見たい知りたい!モードチェック(ミニドラマ).[/spoiler]
[spoiler="[AR] Love Live! Unit Single 3rd session Printemps - Eien Friends"]
Дата выпуска: 12 ноября 2014 г.
Каталог: LACM-14291
Тип рипа: image+.cue
Продолжительность: 37.06
Наличие сканов в содержимом раздачи: да
Треклист:
1) 永遠フレンズ;
2) 小夜啼鳥恋詩;
3) 永遠フレンズ (Off Vocal);
4) 小夜啼鳥恋詩 (Off Vocal);
5) カモナ! 真姫ハウス(ミニドラマ).[/spoiler]
[spoiler="[ЗАБРОНИРОВАНО] Love Live! Unit Single 3rd session BiBi - Fuyu ga Kureta Yokan"]
Дата выпуска: 24 декабря 2014 г.
Каталог: LACM-14293
Тип рипа: image+.cue
Продолжительность:
Наличие сканов в содержимом раздачи:
Треклист:
1) 冬がくれた予感;
2) Trouble Busters;
3) 冬がくれた予感く(Off Vocal);
4) Trouble Busters(Off Vocal);
5) 夢にときめけ! 今にふりつけ!(ミニドラマ).
-
[/spoiler]
[/spoiler]
Дата выпуска: 25 апреля 2012 г.
Каталог: LACM-4924
Тип рипа: image+.cue
Продолжительность: 31.24
Наличие сканов в содержимом раздачи: да
Треклист:
1) Mermaid festa vol.2 ~Passionate~;
2) Someday of my life;
3) Koi No Shigunaru Rin rin rin!;
4) Mermaid festa vol.2 ~Passionate~ (Off Vocal);
5) Someday of my life (Off Vocal);
6) Koi No Shigunaru Rin rin rin! (Off Vocal);
7) HonoRin, Anata o Okoshi ni Kimashita!.
Дата выпуска: 23 мая 2012 г.
Каталог: LACM-4943
Тип рипа: image+.cue
Продолжительность: 28.01
Наличие сканов в содержимом раздачи: да
Треклист:
1) Otome Shiki Ren'ai Juku;
2) Mahoutsukai Hajimemashita!;
3) Junai Lens;
4) Otome Shiki Ren'ai Juku;
5) Mahoutsukai Hajimemashita! (Off Vocal);
6) Junai Lens (Off Vocal);
7) NikoNozo, Tedzukuri Bentou o Motte Kimashita!.
Дата выпуска: 27 июня 2012 г.
Каталог: LACM-4946
Тип рипа: image+.cue
Продолжительность: 27.57
Наличие сканов в содержимом раздачи: да
Треклист:
1) Kokuhaku Biyori, desu!;
2) Blueberry♥Train;
3) Kodoku Na Heaven;
4) Kokuhaku Biyori, desu! (Off Vocal);
5) Blueberry♥Train (Off Vocal);
6) Kodoku Na Heaven (Off Vocal);
7) KotoPana, Omimai ni Kimashita!.
Дата выпуска: 25 июля 2012 г.
Каталог: LACM-4961
Тип рипа: image+.cue
Продолжительность: 32.23
Наличие сканов в содержимом раздачи: да
Треклист:
1) soldier game;
2) Daring!!;
3) Yuuki No Reason;
4) Arifureta Kanashimi No Hate;
5) soldier game (Off Vocal);
6) Daring!! (Off Vocal);
7) Yuuki No Reason (Off Vocal);
8) Arifureta Kanashimi No Hate (Off Vocal);
9) MakiUmiEri, Obenkyou Kaishi ni Kimashita!.
Дата выпуска: 13 августа 2010 г.
Каталог: LZM-2027~8
Тип рипа: image+.cue
Продолжительность: 42.15
Наличие сканов в содержимом раздачи: да
Треклист:
1) 僕らのLIVE 君とのLIFE;
2) 友情ノーチェンジ;
3) 僕らのLIVE 君とのLIFE (Off Vocal);
4) 友情ノーチェンジ (Off Vocal);
5) はじめまして-高坂穂乃果-;
6) はじめまして-絢瀬絵里-;
7) はじめまして-南ことり-;
8) はじめまして-園田海未-;
9) はじめまして-星空凛-;
10) はじめまして-西木野真姫-;
11) はじめまして-東條希-;
12) はじめまして-小泉花陽-;
13) はじめまして-矢澤にこ-.
-----------------------

DON'T MODIFY THIS FILE

-----------------------

PERFORMER: auCDtect Task Manager, ver. 1.5.1RC6 build 1.5.1.7Copyright (c) 2008-2010 y-soft. All rights reservedhttp://y-soft.org

ANALYZER: auCDtect: CD records authenticity detector, version 0.8.2Copyright (c) 2004 Oleg Berngardt. All rights reserved.Copyright (c) 2004 Alexander Djourik. All rights reserved.

FILE: Bokura no LIVE Kimi to no LIFE.flac Size: 238212887 Hash: D63857CD23170A8AB5B77009C117081D Accuracy: -m0 Conclusion: CDDA 100% Signature: F39C1338B942F6F2C9051862E5F57B8A072E89D9
General
Complete name : Q:\Onimu OST & Japunese muzik\Sorted\Love Live!\Love Live! Single\Love Live! 1st Single - Bokura no LIVE Kimi to no LIFE\VIDEO_TS\VTS_01_1.VOB
Format : MPEG-PS
File size : 356 MiB
Duration : 7s 7ms
Overall bit rate mode : Variable
Overall bit rate : 427 Mbps

Video
ID : 224 (0xE0)
Format : MPEG Video
Format version : Version 2
Format profile : [email protected]
Format settings, BVOP : No
Format settings, Matrix : Custom
Format settings, GOP : Variable
Duration : 7s 7ms
Bit rate mode : Variable
Bit rate : 417 Mbps
Maximum bit rate : 9 800 Kbps
Width : 720 pixels
Height : 480 pixels
Display aspect ratio : 16:9
Frame rate : 29.970 fps
Standard : NTSC
Color space : YUV
Chroma subsampling : 4:2:0
Bit depth : 8 bits
Scan type : Progressive
Compression mode : Lossy
Bits/(Pixel*Frame) : 40.222
Time code of first frame : 01:00:21:00
Time code source : Group of pictures header
Stream size : 348 MiB (98%)

Audio
ID : 189 (0xBD)-160 (0xA0)
Format : PCM
Format settings, Endianness : Big
Format settings, Sign : Signed
Muxing mode : DVD-Video
Duration : 6s 966ms
Bit rate mode : Constant
Bit rate : 1 536 Kbps
Channel(s) : 2 channels
Sampling rate : 48.0 KHz
Bit depth : 16 bits
Stream size : 1.28 MiB (0%)

Menu
Дата выпуска: 22 декабря 2010 г.
Каталог: LACM-4774
Тип рипа: image+.cue
Продолжительность: 36.55
Наличие сканов в содержимом раздачи: да
Треклист:
1) Snow halation;
2) baby maybe 恋のボタン;
3) Snow halation(Off Vocal);
4) baby maybe 恋のボタン(Off Vocal);
5) 聖夜の女の子たち。…まだ明るいけど;
6) あなたとクリスマス;
7) あなたとクリスマス;
8) あなたとクリスマス;
9) あなたとクリスマス;
10) あなたとクリスマス;
11) あなたとクリスマス;
12) あなたとクリスマス;
13) あなたとクリスマス;
14) あなたとクリスマス;
15) 未来へゴー・ネクスト!.
-----------------------

DON'T MODIFY THIS FILE

-----------------------

PERFORMER: auCDtect Task Manager, ver. 1.5.1RC6 build 1.5.1.7Copyright (c) 2008-2010 y-soft. All rights reservedhttp://y-soft.org

ANALYZER: auCDtect: CD records authenticity detector, version 0.8.2Copyright (c) 2004 Oleg Berngardt. All rights reserved.Copyright (c) 2004 Alexander Djourik. All rights reserved.

FILE: Snow Halation.flac Size: 231528244 Hash: CE97C996B520E9AABC0350DA0898EDF7 Accuracy: -m0 Conclusion: CDDA 100% Signature: 2F7AE1E3CA08085D6A44F28A6E0280DF7274712B
General
Complete name : Q:\Onimu OST & Japunese muzik\Sorted\Love Live!\Love Live! Single\Love Live! 2nd Single - Snow Halation\VIDEO_TS\VTS_01_1.VOB
Format : MPEG-PS
File size : 391 MiB
Duration : 7s 7ms
Overall bit rate mode : Variable
Overall bit rate : 468 Mbps

Video
ID : 224 (0xE0)
Format : MPEG Video
Format version : Version 2
Format profile : [email protected]
Format settings, BVOP : No
Format settings, Matrix : Custom
Format settings, GOP : Variable
Duration : 7s 7ms
Bit rate mode : Variable
Bit rate : 457 Mbps
Maximum bit rate : 9 800 Kbps
Width : 720 pixels
Height : 480 pixels
Display aspect ratio : 16:9
Frame rate : 29.970 fps
Standard : NTSC
Color space : YUV
Chroma subsampling : 4:2:0
Bit depth : 8 bits
Scan type : Progressive
Compression mode : Lossy
Bits/(Pixel*Frame) : 44.099
Time code of first frame : 01:20:21:00
Time code source : Group of pictures header
Stream size : 382 MiB (98%)

Audio
ID : 189 (0xBD)-160 (0xA0)
Format : PCM
Format settings, Endianness : Big
Format settings, Sign : Signed
Muxing mode : DVD-Video
Duration : 6s 966ms
Bit rate mode : Constant
Bit rate : 1 536 Kbps
Channel(s) : 2 channels
Sampling rate : 48.0 KHz
Bit depth : 16 bits
Stream size : 1.28 MiB (0%)

Menu
[spoiler="[AR] Love Live! 3rd Single - Natsuiro Egao de 1, 2, Jump!"]
Дата выпуска: 24 августа 2011 г.
Каталог: LACM-4845
Тип рипа: image+.cue
Продолжительность: 50.06
Наличие сканов в содержимом раздачи: да
Треклист:
1) Natsuiro Egao de 1, 2, Jump!;
2) Mermaid festa vol.1;
3) Natsuiro Egao de 1, 2, Jump! (Off Vocal);
4) Mermaid festa vol.1 (Off Vocal);
5) Okinawa Touchaku! (Drama Part);
6) Yagate PV Satsuei ni. (Drama Part);
7) Minna de BBQ (Drama Part);
8) Namiuchigiwa no Paradise (Drama Part).
Exact Audio Copy V1.0 beta 3 from 29. August 2011

EAC extraction logfile from 22. November 2012, 20:15

未知艺术家 / 未知标题

Used drive : ATAPI iHDS118 6 Adapter: 3 ID: 0

Read mode : SecureUtilize accurate stream : YesDefeat audio cache : YesMake use of C2 pointers : No

Read offset correction : 6Overread into Lead-In and Lead-Out : NoFill up missing offset samples with silence : YesDelete leading and trailing silent blocks : NoNull samples used in CRC calculations : YesUsed interface : Native Win32 interface for Win NT & 2000

Used output format : User Defined EncoderSelected bitrate : 1024 kBit/sQuality : HighAdd ID3 tag : NoCommand line compressor : C:\Program Files (x86)\Exact Audio Copy\FLAC\FLAC.EXEAdditional command line options : -8 -V -T "ARTIST=%artist%" -T "TITLE=%title%" -T "ALBUM=%albumtitle%" -T "DATE=%year%" -T "TRACKNUMBER=%tracknr%" -T "GENRE=%genre%" -T "COMMENT=%comment%" -T "BAND=%albuminterpret%" -T "ALBUMARTIST=%albuminterpret%" -T "COMPOSER=%composer%" %haslyrics%--tag-from-file=LYRICS="%lyricsfile%"%haslyrics% -T "DISCNUMBER=%cdnumber%" -T "TOTALDISCS=%totalcds%" -T "TOTALTRACKS=%numtracks%" %hascover%--picture="%coverfile%"%hascover% %source% -o %dest%

TOC of the extracted CD

Track | Start | Length | Start sector | End sector --------------------------------------------------------- 1 | 0:00.00 | 4:29.52 | 0 | 20226 2 | 4:29.52 | 4:01.25 | 20227 | 38326 3 | 8:31.02 | 4:29.20 | 38327 | 58521 4 | 13:00.22 | 4:01.25 | 58522 | 76621 5 | 17:01.47 | 6:47.48 | 76622 | 107194 6 | 23:49.20 | 11:00.15 | 107195 | 156709 7 | 34:49.35 | 5:54.65 | 156710 | 183324 8 | 40:44.25 | 9:21.25 | 183325 | 225424

Range status and errors

Selected range

Filename C:\Users\Administrator\Desktop\未知艺术家 - 未知标题.wav

Peak level 100.0 % Extraction speed 8.4 X Range quality 100.0 % Copy CRC 84FC8AA4 Copy OK

No errors occurred

End of status report

---- CUETools DB Plugin V2.1.3

[CTDB TOCID: cvfm7pU7hpgeCTKbClMT6DuEdyM-] found, Submit result: cvfm7pU7hpgeCTKbClMT6DuEdyM- has been confirmed[28581f08] (4/4) Accurately ripped

==== Log checksum AB11B5DC93A8F66449BF7FF32A81BB4EDD146C339D03C412055C7BBC3AA25D85 ====
General
Complete name : Q:\Onimu OST & Japunese muzik\Sorted\Love Live!\Love Live! Single\Love Live! 3rd Single - Natsuiro Egao de 1, 2, Jump!\VIDEO_TS\VTS_01_1.VOB
Format : MPEG-PS
File size : 350 MiB
Duration : 7s 7ms
Overall bit rate mode : Variable
Overall bit rate : 419 Mbps

Video
ID : 224 (0xE0)
Format : MPEG Video
Format version : Version 2
Format profile : [email protected]
Format settings, BVOP : No
Format settings, Matrix : Custom
Format settings, GOP : Variable
Duration : 7s 7ms
Bit rate mode : Variable
Bit rate : 409 Mbps
Maximum bit rate : 9 800 Kbps
Width : 720 pixels
Height : 480 pixels
Display aspect ratio : 16:9
Frame rate : 29.970 fps
Standard : NTSC
Color space : YUV
Chroma subsampling : 4:2:0
Bit depth : 8 bits
Scan type : Progressive
Compression mode : Lossy
Bits/(Pixel*Frame) : 39.486
Time code of first frame : 01:00:21:00
Time code source : Group of pictures header
Stream size : 342 MiB (98%)

Audio
ID : 189 (0xBD)-160 (0xA0)
Format : PCM
Format settings, Endianness : Big
Format settings, Sign : Signed
Muxing mode : DVD-Video
Duration : 6s 966ms
Bit rate mode : Constant
Bit rate : 1 536 Kbps
Channel(s) : 2 channels
Sampling rate : 48.0 KHz
Bit depth : 16 bits
Stream size : 1.28 MiB (0%)

Menu
[spoiler="[AR] Love Live! 4th Single - Mogyutto LOVE de Sekkin Chuu!"]
Дата выпуска: 15 февраля 2012 г.
Каталог: LACM-4907
Тип рипа: image+.cue
Продолжительность: 59.29
Наличие сканов в содержимом раздачи: да
Треклист:
1) もぎゅっと“love”で接近中!;
2) 愛してるばんざーい! 4:52
3) もぎゅっと“love”で接近中!(Off Vocal);
4) 愛してるばんざーい!(Off Vocal);
5) もうすぐバレンタイン;
6) 準備だ!バレンタイン;
7) レッツクッキング!;
8) あなたのもとへ.
Exact Audio Copy V1.0 beta 3 from 29. August 2011

EAC extraction logfile from 24. November 2012, 22:23

未知艺术家 / 未知标题

Used drive : ATAPI iHDS118 6 Adapter: 3 ID: 0

Read mode : SecureUtilize accurate stream : YesDefeat audio cache : YesMake use of C2 pointers : No

Read offset correction : 6Overread into Lead-In and Lead-Out : NoFill up missing offset samples with silence : YesDelete leading and trailing silent blocks : NoNull samples used in CRC calculations : YesUsed interface : Native Win32 interface for Win NT & 2000

Used output format : User Defined EncoderSelected bitrate : 1024 kBit/sQuality : HighAdd ID3 tag : NoCommand line compressor : C:\Program Files (x86)\Exact Audio Copy\FLAC\FLAC.EXEAdditional command line options : -8 -V -T "ARTIST=%artist%" -T "TITLE=%title%" -T "ALBUM=%albumtitle%" -T "DATE=%year%" -T "TRACKNUMBER=%tracknr%" -T "GENRE=%genre%" -T "COMMENT=%comment%" -T "BAND=%albuminterpret%" -T "ALBUMARTIST=%albuminterpret%" -T "COMPOSER=%composer%" %haslyrics%--tag-from-file=LYRICS="%lyricsfile%"%haslyrics% -T "DISCNUMBER=%cdnumber%" -T "TOTALDISCS=%totalcds%" -T "TOTALTRACKS=%numtracks%" %hascover%--picture="%coverfile%"%hascover% %source% -o %dest%

TOC of the extracted CD

Track | Start | Length | Start sector | End sector --------------------------------------------------------- 1 | 0:00.00 | 5:43.70 | 0 | 25794 2 | 5:43.70 | 4:52.35 | 25795 | 47729 3 | 10:36.30 | 5:43.62 | 47730 | 73516 4 | 16:20.17 | 4:53.41 | 73517 | 95532 5 | 21:13.58 | 9:44.35 | 95533 | 139367 6 | 30:58.18 | 7:48.37 | 139368 | 174504 7 | 38:46.55 | 7:53.34 | 174505 | 210013 8 | 46:40.14 | 12:48.30 | 210014 | 267643

Range status and errors

Selected range

Filename C:\Users\Administrator\Desktop\未知艺术家 - 未知标题.wav

Peak level 100.0 % Extraction speed 8.6 X Range quality 100.0 % Copy CRC 9D9B38A0 Copy OK

No errors occurred

End of status report

---- CUETools DB Plugin V2.1.3

[CTDB TOCID: iiDLOPgyUy056.tp.2DAxTxUWKs-] found, Submit result: iiDLOPgyUy056.tp.2DAxTxUWKs- has been confirmed[e8e84a58] (5/5) Accurately ripped

==== Log checksum 5909B258D3925BFBB3B883B173096BE26F43EB7C0A9EBB56CE6807E97C9C32C4 ====
General
Complete name : Q:\Onimu OST & Japunese muzik\Sorted\Love Live!\Love Live! Single\Love Live! 4th Single - Mogyutto LOVE de Sekkin Chuu!\VIDEO_TS\VTS_01_1.VOB
Format : MPEG-PS
File size : 405 MiB
Duration : 6mn 14s
Overall bit rate mode : Variable
Overall bit rate : 9 078 Kbps

Video
ID : 224 (0xE0)
Format : MPEG Video
Format version : Version 2
Format profile : [email protected]
Format settings, BVOP : No
Format settings, Matrix : Custom
Format settings, GOP : Variable
Duration : 6mn 14s
Bit rate mode : Variable
Bit rate : 7 361 Kbps
Maximum bit rate : 9 800 Kbps
Width : 720 pixels
Height : 480 pixels
Display aspect ratio : 16:9
Frame rate : 29.970 fps
Standard : NTSC
Color space : YUV
Chroma subsampling : 4:2:0
Bit depth : 8 bits
Scan type : Progressive
Compression mode : Lossy
Bits/(Pixel*Frame) : 0.711
Time code of first frame : 01:16:21:00
Time code source : Group of pictures header
Stream size : 328 MiB (81%)

Audio
ID : 189 (0xBD)-160 (0xA0)
Format : PCM
Format settings, Endianness : Big
Format settings, Sign : Signed
Muxing mode : DVD-Video
Duration : 6mn 14s
Bit rate mode : Constant
Bit rate : 1 536 Kbps
Channel(s) : 2 channels
Sampling rate : 48.0 KHz
Bit depth : 16 bits
Stream size : 68.5 MiB (17%)

Menu
[/spoiler]
[spoiler="[AR] Love Live! 5th Single - Wonderful Rush"]
Дата выпуска:
Каталог: LACM-4979
Тип рипа: image+.cue
Продолжительность: 57.20
Наличие сканов в содержимом раздачи: да
Треклист:
1) Wonderful Rush;
2) Oh,Love&Peace!;
3) Wonderful Rush (Off Vocal);
4) Oh,Love&Peace! (Off Vocal);
5) 喫茶とメイドな一年生 (ドラマパート);
6) 屋敷にお化けは二年生 (ドラマパート);
7) ショーでファッション!三年生 (ドラマパート);
8) ダンス・クライマックス! (ドラマパート).
Exact Audio Copy V0.99 prebeta 5 from 4. May 2009

EAC 取り込みログファイル 日付 : 26. 9月 2012, 4:40

- / Wonderful Rush

使用ドライブ : PIONEER BD-RW BDR-205 Adapter: 0 ID: 1

読み込みモード : セキュアモードドライブが正確なデータ転送能力を持つ : はいオーディオキャッシュを使用できる : はいC2エラー情報を検出する : いいえ

読み込みサンプルオフセット訂正値 : 637リードイン・リードアウトをオーバーリードする : いいえ欠落したオフセットサンプルを無音で補完する : はい曲の先頭と末端の無音領域を削除する : いいえCRC計算で無音のサンプルを使用するか : はい使用インターフェース : Win NT & 2000用のクラスドライバ

使用出力モード : 内蔵WAV出力ルーチンサンプルフォーマット : 44.100 Hz; 16 Bit; ステレオ

TOC情報を抜き出します

トラック | スタート | 長さ | 始めのセクター | 最終セクター ---------------------------------------------------------------- 1 | 0:00.00 | 4:44.08 | 0 | 21307 2 | 4:44.08 | 5:01.37 | 21308 | 43919 3 | 9:45.45 | 4:43.62 | 43920 | 65206 4 | 14:29.32 | 5:01.41 | 65207 | 87822 5 | 19:30.73 | 8:59.30 | 87823 | 128277 6 | 28:30.28 | 8:03.64 | 128278 | 164566 7 | 36:34.17 | 12:14.71 | 164567 | 219687 8 | 48:49.13 | 8:30.28 | 219688 | 257965

範囲取り込みステータス & エラー

選択された範囲

ファイル名 F:\EAC\ラブライブ! School idol project_Wonderful Rush/μ’s (tak+iso)\Wonderful Rush.wav

ピークレベル 100.0 % 範囲取り込み品質 99.9 % コピーCRC 736C2C5C コピー OK

エラーは発生しませんでした

ステータス報告完了
General
Complete name : Q:\Onimu OST & Japunese muzik\Sorted\Love Live!\Love Live! Single\Love Live! 5th Single - Wonderful Rush\VIDEO_TS\VTS_01_1.VOB
Format : MPEG-PS
File size : 397 MiB
Duration : 6mn 23s
Overall bit rate mode : Variable
Overall bit rate : 8 698 Kbps

Video
ID : 224 (0xE0)
Format : MPEG Video
Format version : Version 2
Format profile : [email protected]
Format settings, BVOP : No
Format settings, Matrix : Custom
Format settings, GOP : Variable
Duration : 6mn 23s
Bit rate mode : Variable
Bit rate : 6 989 Kbps
Maximum bit rate : 9 800 Kbps
Width : 720 pixels
Height : 480 pixels
Display aspect ratio : 16:9
Frame rate : 29.970 fps
Standard : NTSC
Color space : YUV
Chroma subsampling : 4:2:0
Bit depth : 8 bits
Compression mode : Lossy
Bits/(Pixel*Frame) : 0.675
Time code of first frame : 01:00:21:00
Time code source : Group of pictures header
Stream size : 319 MiB (80%)

Audio
ID : 189 (0xBD)-160 (0xA0)
Format : PCM
Format settings, Endianness : Big
Format settings, Sign : Signed
Muxing mode : DVD-Video
Duration : 6mn 23s
Bit rate mode : Constant
Bit rate : 1 536 Kbps
Channel(s) : 2 channels
Sampling rate : 48.0 KHz
Bit depth : 16 bits
Stream size : 70.2 MiB (18%)

Menu
[/spoiler]
[spoiler="[AR] Love Live! 6th Single - Music S.T.A.R.T!!"]
Дата выпуска: 27 ноября 2013 г.
Каталог: LACM-34155
Тип рипа: image+.cue
Продолжительность: 1.17.51
Наличие сканов в содержимом раздачи: да
Треклист:
1) Music S.T.A.R.T!!;
2) LOVELESS WORLD;
3) Music S.T.A.R.T!! (Off Vocal);
4) LOVELESS WORLD (Off Vocal);
5) 行こう行こう♪ 雪の国へ;
6) ゲレンデでサバイバル!?;
7) 危ない!? イン・マイ・ドリーム.
Exact Audio Copy V1.0 beta 3 from 29. August 2011

EAC extraction logfile from 23. November 2013, 14:39

『ラブライブ!』6th single「Music S.T.A.R.T!!」(超豪華盤)

Used drive : TSSTcorpDVD-RW SH-216AB Adapter: 0 ID: 1

Read mode : SecureUtilize accurate stream : YesDefeat audio cache : YesMake use of C2 pointers : No

Read offset correction : 6Overread into Lead-In and Lead-Out : NoFill up missing offset samples with silence : YesDelete leading and trailing silent blocks : NoNull samples used in CRC calculations : YesUsed interface : Native Win32 interface for Win NT & 2000

Used output format : Internal WAV RoutinesSample format : 44.100 Hz; 16 Bit; Stereo

TOC of the extracted CD

Track | Start | Length | Start sector | End sector --------------------------------------------------------- 1 | 0:00.00 | 4:57.15 | 0 | 22289 2 | 4:57.15 | 5:18.30 | 22290 | 46169 3 | 10:15.45 | 4:56.45 | 46170 | 68414 4 | 15:12.15 | 5:18.30 | 68415 | 92294 5 | 20:30.45 | 17:51.05 | 92295 | 172624 6 | 38:21.50 | 16:24.17 | 172625 | 246441 7 | 54:45.67 | 23:05.25 | 246442 | 350341

Range status and errors

Selected range

Filename C:\Users\Kenneth\Desktop\『ラブライブ!』6th single「Music S.T.A.R.T!!」(超豪華盤).wav

Peak level 100.0 % Extraction speed 3.4 X Range quality 99.9 % Copy CRC C30442F6 Copy OK

No errors occurred

AccurateRip summary

Track 1 not present in databaseTrack 2 not present in databaseTrack 3 not present in databaseTrack 4 not present in databaseTrack 5 not present in databaseTrack 6 not present in databaseTrack 7 not present in database

None of the tracks are present in the AccurateRip database

End of status report

---- CUETools DB Plugin V2.1.4

[CTDB TOCID: 7HsIldZCGelV05pJgVmOVLiuqV4-] disk not present in databaseSubmit result: 7HsIldZCGelV05pJgVmOVLiuqV4- has been uploaded

==== Log checksum 1174D7EDD039F30076557C1AA2F30A93C76F1A6EE2B2CC5C3BF6C49031C0BBFA ====
[/spoiler]
[/spoiler]
Дата выпуска: 23 ноября 2011 г.
Каталог: LACA-15168
Тип рипа: image+.cue
Продолжительность: 42.50
Наличие сканов в содержимом раздачи: да
Треклист:
1) Watashitachi wa Mirai no Hana
2) Bokura no LIVE Kimi to no LIFE
3) Yuujou no Change
4) Snow halation
5) baby maybe Koi no Button
6) Shiranai Love*Oshiete Love
7) A-NO-NE-GA-N-BA-RE!
8) Natsuiro Egao de 1,2,Jump!
9) Mermaid festa vol.1.
-----------------------

DON'T MODIFY THIS FILE

-----------------------

PERFORMER: auCDtect Task Manager, ver. 1.5.1RC6 build 1.5.1.7Copyright (c) 2008-2010 y-soft. All rights reservedhttp://y-soft.org

ANALYZER: auCDtect: CD records authenticity detector, version 0.8.2Copyright (c) 2004 Oleg Berngardt. All rights reserved.Copyright (c) 2004 Alexander Djourik. All rights reserved.

FILE: Umiiro Shōjo ni Miserarete.flac Size: 348726917 Hash: 30CDE6C1E4294470EE11FB2C74F68FB2 Accuracy: -m0 Conclusion: CDDA 100% Signature: A92EF50B6992B9ED40E1950A3D9F5E6E0D06E8BD
Дата выпуска: 14 декабря 2011 г.
Каталог: LACA-15169
Тип рипа: image+.cue
Продолжительность: 43.30
Наличие сканов в содержимом раздачи: да
Треклист:
1) Spicaterrible
2) Bokura no LIVE Kimi to no LIFE
3) Yuujou no Change
4) Snow halation
5) baby maybe Koi no Button
6) Love marginal
7) sweet&sweet holiday
8) Natsuiro Egao de 1,2,Jump!
9) Mermaid festa vol.1.
-----------------------

DON'T MODIFY THIS FILE

-----------------------

PERFORMER: auCDtect Task Manager, ver. 1.5.1RC6 build 1.5.1.7Copyright (c) 2008-2010 y-soft. All rights reservedhttp://y-soft.org

ANALYZER: auCDtect: CD records authenticity detector, version 0.8.2Copyright (c) 2004 Oleg Berngardt. All rights reserved.Copyright (c) 2004 Alexander Djourik. All rights reserved.

FILE: Kotori Lovin' you.flac Size: 362376143 Hash: 23F8FEF6A5EE14728978165111E5D6E0 Accuracy: -m0 Conclusion: CDDA 99% Signature: 918ADBA6EC23019BB0AFD8FC29E512525C28CBEA
Дата выпуска: 25 января 2012 г.
Каталог: LACA-15170
Тип рипа: image+.cue
Продолжительность: 47.43
Наличие сканов в содержимом раздачи: да
Треклист:
1) Ai wa Taiyou Ja Nai?;
2) Mou Hitori Ja Nai yo;
3) Bokura no LIVE Kimi to no LIFE;
4) Yuujou no Change;
5) Snow halation;
6) baby maybe Koi no Button;
7) Love marginal;
8) sweet&sweet holiday;
9) Natsuiro Egao de 1,2,Jump!;
10) Mermaid festa vol.1.
-----------------------

DON'T MODIFY THIS FILE

-----------------------

PERFORMER: auCDtect Task Manager, ver. 1.5.1RC6 build 1.5.1.7Copyright (c) 2008-2010 y-soft. All rights reservedhttp://y-soft.org

ANALYZER: auCDtect: CD records authenticity detector, version 0.8.2Copyright (c) 2004 Oleg Berngardt. All rights reserved.Copyright (c) 2004 Alexander Djourik. All rights reserved.

FILE: Honnori Honokairo!.flac Size: 388967971 Hash: E83D4C0597D0659A7382FD920EE8E320 Accuracy: -m0 Conclusion: CDDA 100% Signature: F3EDD894390CFE129141AD3BB3B882BFFAA7D052
Дата выпуска: 19 февраля 2012 г.
Каталог: LZM-2057
Тип рипа: image+.cue
Продолжительность: 35.10
Наличие сканов в содержимом раздачи: нет
Треклист:
1) Bokura no LIVE Kimi to no LIFE
2) Yuujou no Change
3) Snow halation
4) baby maybe Koi no Button
5) Shiranai Love*Oshiete Love
6) A-NO-NE-GA-N-BA-RE!
7) Natsuiro Egao de 1,2,Jump!
8) Mermaid festa vol.1.
-----------------------

DON'T MODIFY THIS FILE

-----------------------

PERFORMER: auCDtect Task Manager, ver. 1.5.1RC6 build 1.5.1.7Copyright (c) 2008-2010 y-soft. All rights reservedhttp://y-soft.org

ANALYZER: auCDtect: CD records authenticity detector, version 0.8.2Copyright (c) 2004 Oleg Berngardt. All rights reserved.Copyright (c) 2004 Alexander Djourik. All rights reserved.

FILE: Nozomi Kanaete.flac Size: 286206315 Hash: 3D7BBA2B069546DB078F77279E6BC6D0 Accuracy: -m0 Conclusion: CDDA 100% Signature: 7F02F9568A2A9B1EE29EA4A6DFCC59EF6F7B8474
Дата выпуска: 19 февраля 2012 г.
Каталог: LZM-2058
Тип рипа: image+.cue
Продолжительность: 34.26
Наличие сканов в содержимом раздачи: нет
Треклист:
1) Bokura no LIVE Kimi to no LIFE
2) Yuujou no Change
3) Snow halation
4) baby maybe Koi no Button
5) Diamond Princess no Yuutsu
6) Love Novels
7) Natsuiro Egao de 1,2,Jump!
8) Mermaid festa vol.1.
-----------------------

DON'T MODIFY THIS FILE

-----------------------

PERFORMER: auCDtect Task Manager, ver. 1.5.1RC6 build 1.5.1.7Copyright (c) 2008-2010 y-soft. All rights reservedhttp://y-soft.org

ANALYZER: auCDtect: CD records authenticity detector, version 0.8.2Copyright (c) 2004 Oleg Berngardt. All rights reserved.Copyright (c) 2004 Alexander Djourik. All rights reserved.

FILE: Smile for you.flac Size: 284023311 Hash: 2757CA88C5D768B07F7ACEEB9D0B3197 Accuracy: -m0 Conclusion: CDDA 100% Signature: 0B0E942314659BB82A614C959F9B0D3BCCE3071C
Дата выпуска: 19 февраля 2012 г.
Каталог: LZM-2059
Тип рипа: image+.cue
Продолжительность: 34.29
Наличие сканов в содержимом раздачи: нет
Треклист:
1) Bokura no LIVE Kimi to no LIFE
2) Yuujou no Change
3) Snow halation
4) baby maybe Koi no Button
5) Diamond Princess no Yuutsu
6) Love Novels
7) Natsuiro Egao de 1,2,Jump!
8) Mermaid festa vol.1.
-----------------------

DON'T MODIFY THIS FILE

-----------------------

PERFORMER: auCDtect Task Manager, ver. 1.5.1RC6 build 1.5.1.7Copyright (c) 2008-2010 y-soft. All rights reservedhttp://y-soft.org

ANALYZER: auCDtect: CD records authenticity detector, version 0.8.2Copyright (c) 2004 Oleg Berngardt. All rights reserved.Copyright (c) 2004 Alexander Djourik. All rights reserved.

FILE: TRUE DIVA.flac Size: 282857569 Hash: 16EE39E9401FD181469367E851BAF404 Accuracy: -m0 Conclusion: CDDA 100% Signature: B26F5E4249B102229136D0A9C2F86E7D8D9B7877
[spoiler="[AR] DISC7 Eli Ayase - Beloved Ellie"]
Дата выпуска: 19 февраля 2012 г.
Каталог: LZM-2060
Тип рипа: image+.cue
Продолжительность: 34.26
Наличие сканов в содержимом раздачи: да
Треклист:
1) Bokura no LIVE Kimi to no LIFE
2) Yuujou no Change
3) Snow halation
4) baby maybe Koi no Button
5) Diamond Princess no Yuutsu
6) Love Novels
7) Natsuiro Egao de 1,2,Jump!
8) Mermaid festa vol.1.
Exact Audio Copy V1.0 beta 3 from 29. August 2011

EAC extraction logfile from 16. June 2013, 16:39

Unknown Artist / Unknown Title

Used drive : PIONEER DVD-RW DVR-220L Adapter: 2 ID: 0

Read mode : SecureUtilize accurate stream : YesDefeat audio cache : YesMake use of C2 pointers : No

Read offset correction : 6Overread into Lead-In and Lead-Out : NoFill up missing offset samples with silence : YesDelete leading and trailing silent blocks : NoNull samples used in CRC calculations : YesUsed interface : Native Win32 interface for Win NT & 2000

Used output format : Internal WAV RoutinesSample format : 44.100 Hz; 16 Bit; Stereo

TOC of the extracted CD

Track | Start | Length | Start sector | End sector --------------------------------------------------------- 1 | 0:00.00 | 5:23.56 | 0 | 24280 2 | 5:23.56 | 4:15.28 | 24281 | 43433 3 | 9:39.09 | 4:18.48 | 43434 | 62831 4 | 13:57.57 | 4:30.59 | 62832 | 83140 5 | 18:28.41 | 3:54.56 | 83141 | 100746 6 | 22:23.22 | 3:36.53 | 100747 | 116999 7 | 26:00.00 | 4:28.54 | 117000 | 137153 8 | 30:28.54 | 3:57.14 | 137154 | 154942

Range status and errors

Selected range

Filename C:\Users\Administrator\Desktop\Unknown Artist - Unknown Title.wav

Peak level 100.0 % Extraction speed 6.5 X Range quality 100.0 % Test CRC A476A8BE Copy CRC A476A8BE Copy OK

No errors occurred

End of status report

==== Log checksum AA10720B18BF6A92165C2FC184176893C3313138D5B762128073F5CED723153E ====Exact Audio Copy V1.0 beta 3 from 29. August 2011

EAC extraction logfile from 16. June 2013, 16:39

Unknown Artist / Unknown Title

Used drive : PIONEER DVD-RW DVR-220L Adapter: 2 ID: 0

Read mode : SecureUtilize accurate stream : YesDefeat audio cache : YesMake use of C2 pointers : No

Read offset correction : 6Overread into Lead-In and Lead-Out : NoFill up missing offset samples with silence : YesDelete leading and trailing silent blocks : NoNull samples used in CRC calculations : YesUsed interface : Native Win32 interface for Win NT & 2000

Used output format : Internal WAV RoutinesSample format : 44.100 Hz; 16 Bit; Stereo

TOC of the extracted CD

Track | Start | Length | Start sector | End sector --------------------------------------------------------- 1 | 0:00.00 | 5:23.56 | 0 | 24280 2 | 5:23.56 | 4:15.28 | 24281 | 43433 3 | 9:39.09 | 4:18.48 | 43434 | 62831 4 | 13:57.57 | 4:30.59 | 62832 | 83140 5 | 18:28.41 | 3:54.56 | 83141 | 100746 6 | 22:23.22 | 3:36.53 | 100747 | 116999 7 | 26:00.00 | 4:28.54 | 117000 | 137153 8 | 30:28.54 | 3:57.14 | 137154 | 154942

Range status and errors

Selected range

Filename C:\Users\Administrator\Desktop\Unknown Artist - Unknown Title.wav

Peak level 100.0 % Extraction speed 6.5 X Range quality 100.0 % Test CRC A476A8BE Copy CRC A476A8BE Copy OK

No errors occurred

End of status report

==== Log checksum AA10720B18BF6A92165C2FC184176893C3313138D5B762128073F5CED723153E ====
Дата выпуска: 19 февраля 2012 г.
Каталог: LZM-2061
Тип рипа: image+.cue
Продолжительность: 35.10
Наличие сканов в содержимом раздачи: нет
Треклист:
1) Bokura no LIVE Kimi to no LIFE
2) Yuujou no Change
3) Snow halation
4) baby maybe Koi no Button
5) Shiranai Love*Oshiete Love
6) A-NO-NE-GA-N-BA-RE!
7) Natsuiro Egao de 1,2,Jump!
8) Mermaid festa vol.1.
-----------------------

DON'T MODIFY THIS FILE

-----------------------

PERFORMER: auCDtect Task Manager, ver. 1.5.1RC6 build 1.5.1.7Copyright (c) 2008-2010 y-soft. All rights reservedhttp://y-soft.org

ANALYZER: auCDtect: CD records authenticity detector, version 0.8.2Copyright (c) 2004 Oleg Berngardt. All rights reserved.Copyright (c) 2004 Alexander Djourik. All rights reserved.

FILE: THE BRILLIANT STAR.flac Size: 284958287 Hash: 8E5A297269B4E8A80FF791B5C78B9865 Accuracy: -m0 Conclusion: CDDA 100% Signature: 3C3EA82B179255084E1CA59228E28239D92F27EE
Дата выпуска: 19 февраля 2012 г.
Каталог: LZM-2062
Тип рипа: image+.cue
Продолжительность: 35.45
Наличие сканов в содержимом раздачи: нет
Треклист:
1) Bokura no LIVE Kimi to no LIFE
2) Yuujou no Change
3) Snow halation
4) baby maybe Koi no Button
5) Love marginal
6) sweet&sweet holiday
7) Natsuiro Egao de 1,2,Jump!
8) Mermaid festa vol.1.
-----------------------

DON'T MODIFY THIS FILE

-----------------------

PERFORMER: auCDtect Task Manager, ver. 1.5.1RC6 build 1.5.1.7Copyright (c) 2008-2010 y-soft. All rights reservedhttp://y-soft.org

ANALYZER: auCDtect: CD records authenticity detector, version 0.8.2Copyright (c) 2004 Oleg Berngardt. All rights reserved.Copyright (c) 2004 Alexander Djourik. All rights reserved.

FILE: Anata dake no taiyo ni nari tai.flac Size: 292234550 Hash: 0FB6676B27101C05C016A7231DF27AC7 Accuracy: -m0 Conclusion: CDDA 100% Signature: 17110BB842F91571AD01219E8E33750794DD3F5A
[/spoiler]
[spoiler="[AR] DISC1 Honoka Kousaka - orange cheers!"]
Дата выпуска: 2 апреля 2014 г.
Каталог: LACA-39331
Тип рипа: image+.cue
Продолжительность: 1.05.01
Наличие сканов в содержимом раздачи: да
Треклист:
1) Mogyutto "love" de Sekkin Chuu!
2) Aishiteru Banzai!
3) Mermaid festa vol.2 ~Passionate~
4) Wonderful Rush
5) Oh,Love&Peace!
6) Bokura wa Ima no Naka de
7) WILD STARS
8) Kitto Seishun ga Kikoeru
9) Kaguya no Shiro de Odoritai
10) Susume→Tomorrow
11) Korekara no Someday
12) Wonder zone
13) No brand girls
14) START:DASH!!.
[spoiler="[AR] DISC2 Eli Ayase - Ice Blue no Shunkan"]
Дата выпуска: 2 апреля 2014 г.
Каталог: LACA-39332
Тип рипа: image+.cue
Продолжительность: 54.17
Наличие сканов в содержимом раздачи: да
Треклист:
1) Mogyutto "love" de Sekkin Chuu!
2) Aishiteru Banzai!
3) soldier game
4) Wonderful Rush
5) Oh,Love&Peace!
6) Bokura wa Ima no Naka de
7) WILD STARS
8) Kitto Seishun ga Kikoeru
9) Kaguya no Shiro de Odoritai
10) Wonder zone
11) No brand girls
12) START:DASH!!.[/spoiler]
[spoiler="[AR] DISC3 Kotori Minami - Junpaku Romance"]
Дата выпуска: 2 апреля 2014 г.
Каталог: LACA-39333
Тип рипа: image+.cue
Продолжительность: 1.03.15
Наличие сканов в содержимом раздачи: да
Треклист:
1) Mogyutto "love" de Sekkin Chuu!
2) Aishiteru Banzai!
3) Kokuhaku Biyori, desu!
4) Wonderful Rush
5) Oh,Love&Peace!
6) Bokura wa Ima no Naka de
7) WILD STARS
8) Kitto Seishun ga Kikoeru
9) Kaguya no Shiro de Odoritai
10) Susume→Tomorrow
11) Korekara no Someday
12) Wonder zone
13) No brand girls
14) START:DASH!!.[/spoiler]
[spoiler="[AR] DISC4 Umi Sonoda - Aoi no Shinwa"]
Дата выпуска: 2 апреля 2014 г.
Каталог: LACA-39334
Тип рипа: image+.cue
Продолжительность: 1.03.19
Наличие сканов в содержимом раздачи: да
Треклист:
1) Mogyutto "love" de Sekkin Chuu!
2) Aishiteru Banzai!
3) soldier game
4) Wonderful Rush
5) Oh,Love&Peace!
6) Bokura wa Ima no Naka de
7) WILD STARS
8) Kitto Seishun ga Kikoeru
9) Kaguya no Shiro de Odoritai
10) Susume→Tomorrow
11) Korekara no Someday
12) Wonder zone
13) No brand girls
14) START:DASH!!.[/spoiler]
[spoiler="[AR] DISC5 Rin Hoshizora - Ring a yellow bell"]
Дата выпуска: 2 апреля 2014 г.
Каталог: LACA-39335
Тип рипа: image+.cue
Продолжительность: 1.09.43
Наличие сканов в содержимом раздачи: да
Треклист:
1) Mogyutto "love" de Sekkin Chuu!
2) Aishiteru Banzai!
3) Mermaid festa vol.2 ~Passionate~
4) Wonderful Rush
5) Oh,Love&Peace!
6) Listen to my heart!!
7) after school NAVIGATORS
8) Bokura wa Ima no Naka de
9) WILD STARS
10) Kitto Seishun ga Kikoeru
11) Kaguya no Shiro de Odoritai
12) Korekara no Someday
13) Wonder zone
14) No brand girls
15) START:DASH!!.[/spoiler]
[spoiler="[AR] DISC6 Maki Nishikino - SCARLET PRINCESS"]
Дата выпуска: 2 апреля 2014 г.
Каталог: LACA-39336
Тип рипа: image+.cue
Продолжительность: 58.43
Наличие сканов в содержимом раздачи: да
Треклист:
1) Mogyutto "love" de Sekkin Chuu!
2) Aishiteru Banzai!
3) soldier game
4) Wonderful Rush
5) Oh,Love&Peace!
6) Bokura wa Ima no Naka de
7) WILD STARS
8) Kitto Seishun ga Kikoeru
9) Kaguya no Shiro de Odoritai
10) Korekara no Someday
11) Wonder zone
12) No brand girls
13) START:DASH!!.[/spoiler]
[spoiler="[AR] DISC7 Nozomi Tojo - Violet Moon"]
Дата выпуска: 2 апреля 2014 г.
Каталог: LACA-39337
Тип рипа: image+.cue
Продолжительность: 53.54
Наличие сканов в содержимом раздачи: да
Треклист:
1) Mogyutto "love" de Sekkin Chuu!
2) Aishiteru Banzai!
3) Otome Shiki Ren'ai Juku
4) Wonderful Rush
5) Oh,Love&Peace!
6) Bokura wa Ima no Naka de
7) WILD STARS
8) Kitto Seishun ga Kikoeru
9) Kaguya no Shiro de Odoritai
10) Wonder zone
11) No brand girls
12) START:DASH!!.[/spoiler]
[spoiler="[AR] DISC8 Hanayo Koizumi - Wakakusa no Season"]
Дата выпуска: 2 апреля 2014 г.
Каталог: LACA-39338
Тип рипа: image+.cue
Продолжительность: 1.07.55
Наличие сканов в содержимом раздачи: да
Треклист:
1) Mogyutto "love" de Sekkin Chuu!
2) Aishiteru Banzai!
3) Kokuhaku Biyori, desu!
4) Wonderful Rush
5) Oh,Love&Peace!
6) Listen to my heart!!
7) after school NAVIGATORS
8) Bokura wa Ima no Naka de
9) WILD STARS
10) Kitto Seishun ga Kikoeru
11) Kaguya no Shiro de Odoritai
12) Korekara no Someday
13) Wonder zone
14) No brand girls
15) START:DASH!!.[/spoiler]
[spoiler="[AR] DISC9 Nico Yazawa - Momoiro Egao"]
Дата выпуска: 2 апреля 2014 г.
Каталог: LACA-39339
Тип рипа: image+.cue
Продолжительность: 1.07.42
Наличие сканов в содержимом раздачи: да
Треклист:
1) Mogyutto "love" de Sekkin Chuu!;
2) Aishiteru Banzai!;
3) Otome Shiki Ren'ai Juku;
4) Wonderful Rush;
5) Oh,Love&Peace!;
6) Listen to my heart!!;
7) after school NAVIGATORS;
8) Bokura wa Ima no Naka de;
9) WILD STARS;
10) Kitto Seishun ga Kikoeru;
11) Kaguya no Shiro de Odoritai;
12) Korekara no Someday;
13) Wonder zone;
14) No brand girls;
15) START:DASH!!.[/spoiler]
[/spoiler]
[spoiler="[AR] Love Live! iOS Game Special Song CD - Takaramonozu, Paradise Live"]
Дата выпуска: 29 января 2014 г.
Каталог: LACM-14181
Тип рипа: image+.cue
Продолжительность: 18.02
Наличие сканов в содержимом раздачи: да
Треклист:
1) Takaramonozu
2) Paradise Live
3) Takaramonozu (Off Vocal)
4) Paradise Live (Off Vocal).
Дата выпуска: 3 января 2013 г.
Каталог: LAPP-1040
Тип рипа: tracks
Продолжительность: 43.23
Наличие сканов в содержимом раздачи: нет
Треклист:
1) Akemashite Omedeto!
2) Minna de Kakizome;
3) Fukubukuro no Nakami wa;
4) Kamisama ni Onegai.
Дата выпуска: 23 июля 2014 г.
Каталог: LABX-8058
Тип рипа: image+.cue
Продолжительность: 8.50
Наличие сканов в содержимом раздачи: нет
Треклист:
1) ENDLESS PARAD;
2) ENDLESS PARAD (off vocal).
Продолжительность: 35.08
Треклист:
1) 「たとえばこんなラブトレイン」;
2) 「たとえばこんなスイートホーム」;
3) 「たとえばこんなパラレルロマンス」.
Дата выпуска: 31 января 2015 г.
Каталог: LAPP-1076
Тип рипа: image+.cue
Продолжительность: 49.14
Наличие сканов в содержимом раздачи: нет
Треклист:
1) Dreamin' Go! Go!!;
2) Dreamin' Go! Go!! (Off Vocal);
3) ワンデイ・ボリスストーリー;
4) ネクスト・アイドル・ジェネレーション;
5) ホーム・ラブリー・ホーム.
-----------------------

DON'T MODIFY THIS FILE

-----------------------

PERFORMER: auCDtect Task Manager, ver. 1.5.1RC6 build 1.5.1.7Copyright (c) 2008-2010 y-soft. All rights reservedhttp://y-soft.org

ANALYZER: auCDtect: CD records authenticity detector, version 0.8.2Copyright (c) 2004 Oleg Berngardt. All rights reserved.Copyright (c) 2004 Alexander Djourik. All rights reserved.

FILE: μ's - Dreamin' Go! Go!!.flac Size: 276779012 Hash: EADCAF5FC925C1D271B430272AD812A1 Accuracy: -m0 Conclusion: CDDA 100% Signature: DE4A49732A3CB619CC713BD4F71D3C36C13E4F3D
[spoiler="[AR] Love Live! NICORINPANA Kokuritsu Otonokizaka Gakuin Annai〜 Bonus CD"]
Дата выпуска: 25 декабря 2013 г.
Каталог: BCXA-0704
Тип рипа: image+.cue
Продолжительность: 55.52
Наличие сканов в содержимом раздачи: да
Треклист:
1) Track01;
2) Track02;
3) Track03;
4) Track04;
5) Track05;
6) Track06;
7) Track07;
8) Track08;
9) Track09;
10) Track10.
Exact Audio Copy V1.0 beta 3 from 29. August 2011

EAC extraction logfile from 21. December 2013, 15:01

「ラブライブ!μ's広報部 〜にこりんぱな〜」出張版

Used drive : TSSTcorpDVD-RW SH-216AB Adapter: 0 ID: 1

Read mode : SecureUtilize accurate stream : YesDefeat audio cache : YesMake use of C2 pointers : No

Read offset correction : 6Overread into Lead-In and Lead-Out : NoFill up missing offset samples with silence : YesDelete leading and trailing silent blocks : NoNull samples used in CRC calculations : YesUsed interface : Native Win32 interface for Win NT & 2000

Used output format : Internal WAV RoutinesSample format : 44.100 Hz; 16 Bit; Stereo

TOC of the extracted CD

Track | Start | Length | Start sector | End sector --------------------------------------------------------- 1 | 0:00.00 | 1:14.27 | 0 | 5576 2 | 1:14.27 | 1:07.30 | 5577 | 10631 3 | 2:21.57 | 1:27.16 | 10632 | 17172 4 | 3:48.73 | 1:01.64 | 17173 | 21811 5 | 4:50.62 | 1:26.29 | 21812 | 28290 6 | 6:17.16 | 1:09.14 | 28291 | 33479 7 | 7:26.30 | 1:10.59 | 33480 | 38788 8 | 8:37.14 | 1:07.38 | 38789 | 43851 9 | 9:44.52 | 1:13.35 | 43852 | 49361 10 | 10:58.12 | 44:53.55 | 49362 | 251391

Range status and errors

Selected range

Filename C:\Users\Kenneth\Desktop\「ラブライブ!μ's広報部 〜にこりんぱな〜」出張版.wav

Peak level 100.0 % Extraction speed 2.8 X Range quality 99.9 % Copy CRC 9C954439 Copy OK

No errors occurred

AccurateRip summary

Track 1 not present in databaseTrack 2 not present in databaseTrack 3 not present in databaseTrack 4 not present in databaseTrack 5 not present in databaseTrack 6 not present in databaseTrack 7 not present in databaseTrack 8 not present in databaseTrack 9 not present in databaseTrack 10 not present in database

None of the tracks are present in the AccurateRip database

End of status report

---- CUETools DB Plugin V2.1.4

[CTDB TOCID: tnWa5IIDdE8h8N4.h8Gbfy9YmNs-] disk not present in databaseSubmit result: tnWa5IIDdE8h8N4.h8Gbfy9YmNs- has been uploaded

==== Log checksum EC8C60E339C781BC92345AC97C09DC226C17ED956C78604FB5DAC518B6EE6200 ====
[/spoiler]
Дата выпуска: 12 июня 2013 г.
Каталог: LLMS-1
Тип рипа: image+.cue
Продолжительность: 58.18
Наличие сканов в содержимом раздачи: нет
Треклист:
1) Track01;
2) Track02;
3) Track03;
4) Track04;
5) Track05;
6) Track06;
7) Track07.
-----------------------

DON'T MODIFY THIS FILE

-----------------------

PERFORMER: auCDtect Task Manager, ver. 1.5.1RC6 build 1.5.1.7Copyright (c) 2008-2010 y-soft. All rights reservedhttp://y-soft.org

ANALYZER: auCDtect: CD records authenticity detector, version 0.8.2Copyright (c) 2004 Oleg Berngardt. All rights reserved.Copyright (c) 2004 Alexander Djourik. All rights reserved.

FILE: CD07.flac Size: 19567638 Hash: 492A96A82339B62C4A425229CBC9F387 Accuracy: -m0 Conclusion: CDDA 100% Signature: 02AFF65B69F3DA372C90B5823DCFE4A5096C014EFILE: CD06.flac Size: 42865855 Hash: 52B8B5D85B24845333F54AED11DF2A01 Accuracy: -m0 Conclusion: CDDA 100% Signature: B573698184B37346D1CD23FDA631C92763801160FILE: CD05.flac Size: 36277442 Hash: 102B6B5613F57D417B149FD2D1004F10 Accuracy: -m0 Conclusion: CDDA 100% Signature: 91F35C6D6AFBEE01999704A6B33AB83936724FFBFILE: CD04.flac Size: 40484607 Hash: BF235CFBF73B9710ED51E804A0858CA6 Accuracy: -m0 Conclusion: CDDA 99% Signature: 464AF9922922D7D193633BAE92909459D943EF47FILE: CD03.flac Size: 35392265 Hash: 471EAD43602F18FC36FCE0BE4195837B Accuracy: -m0 Conclusion: CDDA 100% Signature: A5DD57214552B16FBA074E37F360D86A09707410FILE: CD02.flac Size: 29976625 Hash: C8AA992BBD8BC15C653DE3B96288CFB5 Accuracy: -m0 Conclusion: CDDA 100% Signature: BAEC4BD2C4B619D8709383080609906C242D63D8FILE: CD01.flac Size: 16015954 Hash: BE094F9B120C68EC0E0A0AFBB737A6D2 Accuracy: -m0 Conclusion: CDDA 100% Signature: 8311718B376419EB865317EE4E41432EFBF62621
Дата выпуска: 22 января 2014 г.
Каталог: LLMS-2
Тип рипа: image+.cue
Продолжительность: 56.23
Наличие сканов в содержимом раздачи: нет
Треклист:
1) Track01;
2) Track02;
3) Track03;
4) Track04;
5) Track05;
6) Track06.
-----------------------

DON'T MODIFY THIS FILE

-----------------------

PERFORMER: auCDtect Task Manager, ver. 1.5.1RC6 build 1.5.1.7Copyright (c) 2008-2010 y-soft. All rights reservedhttp://y-soft.org

ANALYZER: auCDtect: CD records authenticity detector, version 0.8.2Copyright (c) 2004 Oleg Berngardt. All rights reserved.Copyright (c) 2004 Alexander Djourik. All rights reserved.

FILE: CD06.flac Size: 22617190 Hash: 98A52511CD8CD0B2BAB92DE331240E8C Accuracy: -m0 Conclusion: CDDA 100% Signature: C739EA68E37602B5238AE0249C9AE74E367DBC28FILE: CD05.flac Size: 54041170 Hash: CB803FA48309C077DE7C321B0B2BE8AC Accuracy: -m0 Conclusion: CDDA 100% Signature: 23082A993B9D5D773310924E2999FDA6F43A19B0FILE: CD04.flac Size: 26842200 Hash: 49BECB5F1C6F2A18D461B899DCD000B5 Accuracy: -m0 Conclusion: CDDA 100% Signature: 5B8374BF9CB59FFA854AB2DA25B49781FAB03C40FILE: CD03.flac Size: 30885664 Hash: 90A891AF5BC66BD173078190AD6FC98C Accuracy: -m0 Conclusion: CDDA 100% Signature: C84ECC0AD7CDD4BDE27C31760A4A7FE0B0E86AFBFILE: CD02.flac Size: 46991580 Hash: 0814620E03F700E2382B0F90CC6C39D3 Accuracy: -m0 Conclusion: CDDA 100% Signature: 912ADD254D343A6AF5DAD49C2B9CA83EE344E0B8FILE: CD01.flac Size: 14455830 Hash: A605B0166124D98D1B7F8C170D923E29 Accuracy: -m0 Conclusion: CDDA 99% Signature: 356F8FA35DB0F786DC53916B1728628CF941C564
Дата выпуска: 2 июля 2014 г.
Тип рипа: image+.cue
Продолжительность: 11.51
Наличие сканов в содержимом раздачи: да
Треклист:
1) Natsuiro Egao de 1, 2, Jump! -Waiting for Summer of love REMIX-;
2) Natsuiro Egao de 1, 2, Jump! -Waiting for Summer of love REMIX- (Off Vocal).
-----------------------

DON'T MODIFY THIS FILE

-----------------------

PERFORMER: auCDtect Task Manager, ver. 1.5.1RC6 build 1.5.1.7Copyright (c) 2008-2010 y-soft. All rights reservedhttp://y-soft.org

ANALYZER: auCDtect: CD records authenticity detector, version 0.8.2Copyright (c) 2004 Oleg Berngardt. All rights reserved.Copyright (c) 2004 Alexander Djourik. All rights reserved.

FILE: 02 Natsuiro Egao de 1, 2, Jump! -Waiting for Summer of love REMIX- (Off Vocal).flac Size: 45061462 Hash: 4958AD35C4C16180CDDD47D98CC00B94 Accuracy: -m0 Conclusion: CDDA 100% Signature: 8B00DA54C496E204D95B82A0626655D72ED5E830FILE: 01 Natsuiro Egao de 1, 2, Jump! -Waiting for Summer of love REMIX-.flac Size: 46333622 Hash: D0E92092C8304BF83FE57A57DBF3726F Accuracy: -m0 Conclusion: CDDA 100% Signature: 7EA1E70AAFC39AB313440C8F2F362D3527620DF7
[spoiler="[AR] Love Live! PS Vita Game Special Song CD - Shangri-La Shower"]
Дата выпуска: 1 октября 2014 г.
Каталог: LACM-14260
Тип рипа: image+.cue
Продолжительность: 21.36
Наличие сканов в содержимом раздачи: да
Треклист:
1) Shangri-La Shower
2) るてしキスキしてる
3) Shangri-La Shower (Off Vocal)
4) るてしキスキしてる (Off Vocal).
Exact Audio Copy V1.0 beta 3 from 29. August 2011

EAC extraction logfile from 27. September 2014, 13:14

「ラブライブ! School idol paradise」主題歌「Shangri-La Shower」

Used drive : TSSTcorpDVD-RW SH-216AB Adapter: 0 ID: 1

Read mode : SecureUtilize accurate stream : YesDefeat audio cache : YesMake use of C2 pointers : No

Read offset correction : 6Overread into Lead-In and Lead-Out : NoFill up missing offset samples with silence : YesDelete leading and trailing silent blocks : NoNull samples used in CRC calculations : YesUsed interface : Native Win32 interface for Win NT & 2000

Used output format : Internal WAV RoutinesSample format : 44.100 Hz; 16 Bit; Stereo

TOC of the extracted CD

Track | Start | Length | Start sector | End sector --------------------------------------------------------- 1 | 0:00.00 | 5:13.55 | 0 | 23529 2 | 5:13.55 | 5:35.13 | 23530 | 48667 3 | 10:48.68 | 5:13.42 | 48668 | 72184 4 | 16:02.35 | 5:33.33 | 72185 | 97192

Range status and errors

Selected range

Filename C:\Users\Kenneth\Desktop\「ラブライブ! School idol paradise」主題歌「Shangri-La Shower」.wav

Peak level 100.0 % Extraction speed 2.3 X Range quality 100.0 % Copy CRC E2C1EABA Copy OK

No errors occurred

AccurateRip summary

Track 1 not present in databaseTrack 2 not present in databaseTrack 3 not present in databaseTrack 4 not present in database

None of the tracks are present in the AccurateRip database

End of status report

---- CUETools DB Plugin V2.1.4

[CTDB TOCID: qlXMBJ27hQXQdVCRroHUp7WuE4s-] disk not present in databaseSubmit result: qlXMBJ27hQXQdVCRroHUp7WuE4s- has been uploaded

==== Log checksum CC9005538B37F326775008B6A472E51A376CDB6BC9686345C83D3C2442BE5B15 ====
[/spoiler]
[spoiler="[AR] Love Live! Web Radio Love Live! Radio Kagai Katsudo ~Nikorinpana~"]
Дата выпуска: 17 октября 2012 г.
Каталог: LACA-15244
Тип рипа: image+.cue
Продолжительность: 38.53
Наличие сканов в содержимом раздачи: да
Треклист:
1) Listen to my heart!!;
2) after school NAVIGATORS;
3) Listen to my heart!! (Off Vocal);
4) after school NAVIGATORS (Off Vocal);
5) ラブライ部 テーマソングDJCDでもラジオ課外活動~にこりんぱな~[DJトラック].
Exact Audio Copy V1.0 beta 3 from 29. August 2011

EAC extraction logfile from 31. October 2012, 22:28

未知艺术家 / 未知标题

Used drive : ATAPI iHDS118 6 Adapter: 3 ID: 0

Read mode : SecureUtilize accurate stream : YesDefeat audio cache : YesMake use of C2 pointers : No

Read offset correction : 6Overread into Lead-In and Lead-Out : NoFill up missing offset samples with silence : YesDelete leading and trailing silent blocks : NoNull samples used in CRC calculations : YesUsed interface : Native Win32 interface for Win NT & 2000

Used output format : Internal WAV RoutinesSample format : 44.100 Hz; 16 Bit; Stereo

TOC of the extracted CD

Track | Start | Length | Start sector | End sector --------------------------------------------------------- 1 | 0:00.00 | 4:29.63 | 0 | 20237 2 | 4:29.63 | 4:49.25 | 20238 | 41937 3 | 9:19.13 | 4:29.62 | 41938 | 62174 4 | 13:49.00 | 4:48.43 | 62175 | 83817 5 | 18:37.43 | 20:15.66 | 83818 | 175008

Range status and errors

Selected range

Filename C:\Users\Administrator\Desktop\未知艺术家 - 未知标题.wav

Peak level 100.0 % Extraction speed 8.0 X Range quality 100.0 % Copy CRC 8F98D72C Copy OK

No errors occurred

End of status report

---- CUETools DB Plugin V2.1.3

[CTDB TOCID: YaqjvtquZBqj.u6R1A2iVcktDo4-] found, Submit result: YaqjvtquZBqj.u6R1A2iVcktDo4- has been confirmed[997ad093] (1/1) Accurately ripped

==== Log checksum 4419907A6F8BB2C27BA50A892FB5BD217B1742BE5D40F8D1F53472864A2298C9 ====
[/spoiler]
[/spoiler]
[spoiler="[AR] Love Live! - M's Best Album Best Live! Collection"]
Дата выпуска: 09 января 2013 г.
Каталог: LACA-39262~3
Тип рипа: image+.cue
Продолжительность: 2.15.01
Наличие сканов в содержимом раздачи: да
Продолжительность: 1.02.23
Треклист:
1) 僕らのLIVE 君とのLIFE;
2) 友情ノーチェンジ;
3) Snow halation;
4) baby maybe 恋のボタン;
5) Love marginal;
6) sweet&sweet holiday;
7) ダイヤモンドプリンセスの憂鬱;
8) ラブノベルス;
9) 知らないLove*教えてLove;
10) あ・の・ね・が・ん・ば・れ!;
11) 夏色えがおで1,2,Jump!;
12) Mermaid festa vol.1;
13) もぎゅっと''love''で接近中!;
14) 愛してるばんざーい!.
Exact Audio Copy V0.99 prebeta 5 from 4. May 2009

EAC 取り込みログファイル 日付 : 15. 1月 2013, 23:50

- / Disc1

使用ドライブ : PIONEER BD-RW BDR-205 Adapter: 0 ID: 1

読み込みモード : セキュアモードドライブが正確なデータ転送能力を持つ : はいオーディオキャッシュを使用できる : はいC2エラー情報を検出する : いいえ

読み込みサンプルオフセット訂正値 : 637リードイン・リードアウトをオーバーリードする : いいえ欠落したオフセットサンプルを無音で補完する : はい曲の先頭と末端の無音領域を削除する : いいえCRC計算で無音のサンプルを使用するか : はい使用インターフェース : Win NT & 2000用のクラスドライバ

使用出力モード : 内蔵WAV出力ルーチンサンプルフォーマット : 44.100 Hz; 16 Bit; ステレオ

TOC情報を抜き出します

トラック | スタート | 長さ | 始めのセクター | 最終セクター ---------------------------------------------------------------- 1 | 0:00.00 | 5:24.25 | 0 | 24324 2 | 5:24.25 | 4:16.23 | 24325 | 43547 3 | 9:40.48 | 4:20.20 | 43548 | 63067 4 | 14:00.68 | 4:30.62 | 63068 | 83379 5 | 18:31.55 | 4:35.25 | 83380 | 104029 6 | 23:07.05 | 4:17.13 | 104030 | 123317 7 | 27:24.18 | 3:54.40 | 123318 | 140907 8 | 31:18.58 | 3:40.52 | 140908 | 157459 9 | 34:59.35 | 4:00.57 | 157460 | 175516 10 | 39:00.17 | 4:17.26 | 175517 | 194817 11 | 43:17.43 | 4:29.00 | 194818 | 214992 12 | 47:46.43 | 3:59.42 | 214993 | 232959 13 | 51:46.10 | 5:44.43 | 232960 | 258802 14 | 57:30.53 | 4:52.43 | 258803 | 280745

範囲取り込みステータス & エラー

選択された範囲

ファイル名 F:\EAC\ラブライブ! - μ’s ベストアルバム (2tak+BDMV)\Disc1.wav

ピークレベル 100.0 % 範囲取り込み品質 100.0 % コピーCRC 4F6AE618 コピー OK

エラーは発生しませんでした

ステータス報告完了
Продолжительность: 1.12.38
Треклист:
1) Wonderful Rush;
2) Oh,Love&Peace!;
3) Mermaid festa vol.2 ~Passionate~;
4) Someday of my life;
5) 恋のシグナルRin rin rin!;
6) 乙女式れんあい塾;
7) まほうつかいはじめました!;
8) 純愛レンズ;
9) 告白日和、です!;
10) ぶる~べりぃ とれいん;
11) 孤独なHeaven;
12) soldier game;
13) Daring!!;
14) 勇気のReason;
15) ありふれた悲しみの果て;
16) Listen to my heart!!;
17) after school NAVIGATORS.
Exact Audio Copy V0.99 prebeta 5 from 4. May 2009

EAC 取り込みログファイル 日付 : 16. 1月 2013, 0:02

- / Disc2

使用ドライブ : PIONEER BD-RW BDR-205 Adapter: 0 ID: 1

読み込みモード : セキュアモードドライブが正確なデータ転送能力を持つ : はいオーディオキャッシュを使用できる : はいC2エラー情報を検出する : いいえ

読み込みサンプルオフセット訂正値 : 637リードイン・リードアウトをオーバーリードする : いいえ欠落したオフセットサンプルを無音で補完する : はい曲の先頭と末端の無音領域を削除する : いいえCRC計算で無音のサンプルを使用するか : はい使用インターフェース : Win NT & 2000用のクラスドライバ

使用出力モード : 内蔵WAV出力ルーチンサンプルフォーマット : 44.100 Hz; 16 Bit; ステレオ

TOC情報を抜き出します

トラック | スタート | 長さ | 始めのセクター | 最終セクター ---------------------------------------------------------------- 1 | 0:00.00 | 4:44.15 | 0 | 21314 2 | 4:44.15 | 5:00.25 | 21315 | 43839 3 | 9:44.40 | 5:25.15 | 43840 | 68229 4 | 15:09.55 | 4:28.15 | 68230 | 88344 5 | 19:37.70 | 4:23.00 | 88345 | 108069 6 | 24:00.70 | 3:21.45 | 108070 | 123189 7 | 27:22.40 | 4:03.65 | 123190 | 141479 8 | 31:26.30 | 4:34.67 | 141480 | 162096 9 | 36:01.22 | 3:38.40 | 162097 | 178486 10 | 39:39.62 | 3:51.21 | 178487 | 195832 11 | 43:31.08 | 4:38.72 | 195833 | 216754 12 | 48:10.05 | 3:42.03 | 216755 | 233407 13 | 51:52.08 | 3:32.52 | 233408 | 249359 14 | 55:24.60 | 3:52.60 | 249360 | 266819 15 | 59:17.45 | 4:03.45 | 266820 | 285089 16 | 63:21.15 | 4:28.55 | 285090 | 305244 17 | 67:49.70 | 4:48.10 | 305245 | 326854

範囲取り込みステータス & エラー

選択された範囲

ファイル名 F:\EAC\ラブライブ! - μ’s ベストアルバム (2tak+BDMV)\Disc2.wav

ピークレベル 100.0 % 範囲取り込み品質 100.0 % コピーCRC 56951E77 コピー OK

エラーは発生しませんでした

ステータス報告完了
[/spoiler]

[AR] — данное обозначение свидетельствует о том, что рип сделан в соответствии с [url=...3583832]данными[/url] настройками и является максимально точным.
В: Когда тут появится "N-ый" альбом?
О: После его выхода (узнать дату выхода можно, например, на cdjapan), загрузки в интернеты и появления у меня свободного времени.

В: Почему скорость маленькая?
О: Моя исходящая скорость равна 1мбиту, ничего с этим поделать не могу.

В: А как называется трек из "N-ой" серии, играющий на "X" минуте?
О: Рекомендую скачать саундтрек и поискать самим — быстрее будет.

В: Почему треки не разделены?
О: Правилами запрещено менять форм-фактор. Да и раздачи образом мне больше нравятся, если честно.

В: Я нашёл ошибку в оформлении/раздаче.
О: Пожалуйста, напишите мне в личку об этом.

В: Как можно отслеживать релизы?
О: Либо используя фид на весь раздел остов в лосе (или только мои релизы), либо в твиттере (в нём ещё буду писать, что в планах на будущее).


Трекер:  [ 12-Мар-2015 05:00 ]

  

Скачать .torrent

Размер .torrent файла 275 KB


Размер: 28.3 GB
Хэш (hash) релиза: 341d494e0f22f48fa7b5f61f0819b7fa409a05ee

Торренты, похожие на Love Live! School Idol Project скачать торрент

Форум Название Автор Размер S L Добавлен
Саундтреки к аниме (mp3) ·· (OST) Живая Любовь! Проект Школьный Идол / Love Live! School Idol Project / Love Live! The School Idol Movie / Love Live! Sunshine!! - 2013-2017 г., MP3 (tracks), 320 kbps (87CD) Galfimbul 81614160977.6 GB 0 0 1496949854

22:24

8-Июн-17

Саундтреки к аниме (mp3) ·· (OST) Живая Любовь! Проект Школьный Идол / Love Live! School Idol Project / Love Live! The School Idol Movie / Love Live! Sunshine!! - 2013-2017 г., MP3 (tracks), 320 kbps (87CD) Galfimbul 78888068337.35 GB 0 0 1488278087

13:34

28-Фев-17

Саундтреки к аниме (mp3) ·· (OST) Живая Любовь! Проект Школьный Идол / Love Live! School Idol Project / Love Live! The School Idol Movie / Love Live! Sunshine!! - 2013-2017 г., MP3 (tracks), 320 kbps (86CD) Galfimbul 78328991737.29 GB 0 0 1485511589

13:06

27-Янв-17

Саундтреки к аниме (mp3) ·· (OST) Живая Любовь! Проект Школьный Идол / Love Live! School Idol Project / Love Live! The School Idol Movie / Love Live! Sunshine!! - 2013-2016 г., MP3 (tracks), 320 kbps (84CD) Galfimbul 76522930777.13 GB 0 0 1483087172

11:39

30-Дек-16

Саундтреки к аниме (mp3) ·· (OST) Живая Любовь! Проект Школьный Идол / Love Live! School Idol Project / Love Live! The School Idol Movie / Love Live! Sunshine!! - 2013 - 2016 г., MP3 (tracks), 320 kbps [83CD] Galfimbul 76291356707.11 GB 0 0 1480614592

20:49

1-Дек-16

Саундтреки к аниме (mp3) ·· (OST) Живая Любовь! Проект Школьный Идол / Love Live! School Idol Project / Love Live! The School Idol Movie / Love Live! Sunshine!! - 2013 - 2016 г., MP3 (tracks), 320 kbps [81CD] Galfimbul 72150255746.72 GB 0 0 1480340967

16:49

28-Ноя-16

Саундтреки к аниме (mp3) ·· (OST) Живая Любовь! Проект Школьный Идол / Love Live! School Idol Project / Love Live! The School Idol Movie / Love Live! Sunshine!! - 2013 - 2016 г., MP3 (tracks), 320 kbps [80CD] Galfimbul 71777581296.68 GB 0 0 1478951787

14:56

12-Ноя-16

Саундтреки к аниме (mp3) ·· (OST) Живая Любовь! Проект Школьный Идол / Love Live! School Idol Project / Love Live! The School Idol Movie / Love Live! Sunshine!! - 2013 - 2016 г., MP3 (tracks), 320 kbps [79CD] Galfimbul 70826105656.6 GB 0 0 1477559803

12:16

27-Окт-16

Саундтреки к аниме (mp3) ·· (OST) Живая Любовь! Проект Школьный Идол / Love Live! School Idol Project / Love Live! The School Idol Movie / Love Live! Sunshine!! - 2013 - 2016 г., MP3 (tracks), 320 kbps [78CD] Galfimbul 70360052836.55 GB 0 0 1474889655

14:34

26-Сен-16

Саундтреки к аниме (mp3) ·· (OST) Живая Любовь! Проект Школьный Идол / Love Live! School Idol Project / Love Live! The School Idol Movie / Love Live! Sunshine!! - 2013 - 2016 г., MP3 (tracks), 320 kbps [77CD] Galfimbul 69900582246.51 GB 0 0 1474099346

11:02

17-Сен-16

Саундтреки к аниме (mp3) ·· (OST) Живая Любовь! Проект Школьный Идол / Love Live! School Idol Project / Love Live! The School Idol Movie / Love Live! Sunshine!! - 2013 - 2016 г., MP3 (tracks), 320 kbps [76CD] Galfimbul 69347378606.46 GB 0 0 1472096226

06:37

25-Авг-16

Саундтреки к аниме (mp3) ·· (OST) Живая Любовь! Проект Школьный Идол / Love Live! School Idol Project / Love Live! The School Idol Movie / Love Live! Sunshine!! - 2013 - 2016 г., MP3 (tracks), 320 kbps [75CD] Galfimbul 68865204616.41 GB 0 0 1469876194

13:56

30-Июл-16

Саундтреки к аниме (mp3) ·· (OST) Живая Любовь! Проект Школьный Идол / Love Live! School Idol Project / Love Live! The School Idol Movie / Love Live! Sunshine!! - 2013 - 2016 г., MP3 (tracks), 320 kbps [74CD] Galfimbul 68415205596.37 GB 0 0 1468665772

13:42

16-Июл-16

Саундтреки к аниме (mp3) ·· (OST) Живая Любовь! Проект Школьный Идол / Rabu Raibu! School Idol Project / Love Live! School Idol Project - 2013 - 2016 г., MP3 (tracks), 320 kbps [73CD] Galfimbul 67932218936.33 GB 0 0 1467638655

16:24

4-Июл-16

Саундтреки к аниме (mp3) ·· (OST) Живая Любовь! Проект Школьный Идол / Rabu Raibu! School Idol Project / Love Live! School Idol Project - 2013 - 2016 г., MP3 (tracks), 320 kbps [72CD] Galfimbul 66921875446.23 GB 0 0 1464775807

13:10

1-Июн-16

Саундтреки к аниме (mp3) ·· (OST) Живая Любовь! Проект Школьный Идол / Rabu Raibu! School Idol Project / Love Live! School Idol Project - 2013 - 2014 г., MP3 (tracks), 320 kbps [51CD] Galfimbul 48802199264.55 GB 0 0 1417064584

08:03

27-Ноя-14

Саундтреки к играм (mp3) ·· (Soundtrack) Love Live! School Idol Project (u's, Printemps, BiBi, lily white, Aqours) [10CD] - 2014 - 2016, MP3, 320 kbps Galfimbul 806703857769 MB 0 0 1479899552

14:12

23-Ноя-16

Саундтреки к играм (mp3) ·· (Soundtrack) Love Live! School Idol Project (u's, Printemps, BiBi, lily white) - 2014 - 2016, MP3, 320 kbps [9CD] Galfimbul 615107878587 MB 0 0 1464777492

13:38

1-Июн-16

Саундтреки к играм (mp3) ·· (Soundtrack) Love Live! School Idol Project (u's, Printemps, BiBi, lily white) - 2014 - 2016, MP3, 320 kbps [9CD] Galfimbul 615107878587 MB 0 0 1464774091

12:41

1-Июн-16

Еще никто не оставлял запись к записи скачать торрент Love Live! School Idol Project . Будь первым!

!Обратная связь