Eps12 Noragami (2014) | Isaiah Mustafa | China Salesman 2018 BRRip AC3 X264-CMRG[TGx]

Скачать через торрент [SERIAL] Терра Нова Terra Nova бесплатно русская версия torrent активатор

Статистика раздачи
Размер:  1.84 GB   |    Зарегистрирован:  3 года 4 месяца   |    .torrent скачан:  46 раз   |   
Раздают:  1  
   
загрузка...
 
Автор Сообщение

Galfimbul

avatar Galfimbul


Терра Нова / Terra Nova

Год выпуска: 2011

Страна: США, Австралия

Жанр: драма, фантастика

Продолжительность: 00:44:00

Перевод: Профессиональный (дублированный)

Cубтитры: нет

Режиссер: Алекс Грейвз

В ролях: Джейсон О’Мара, Кристин Адамс, Байрон Дж. Брочманн, Джоэль Амос Бернс, Джейсон Чонг, Шелли Конн, Эка Дарвилл, Айша Ди, Дин Гейер, Мидо Хамада, Симона Кессель, Стивен Лэнг, Лэндон Лбуарон, Эллисон Миллер, Дэн Мор, Сэм Парсонсон, Роми Полье, Тоня Рени, Наоми Скотт, Валентино Дель Торо, Дэмиан Уолш-Хаулинг, Лаура Уитнолл и др.

Описание: 2149 год. Земля перенаселена. Большинство растений и животных уже исчезли с её лица. Будущее человечества под сомнением, единственную надежду на выживание ученые видят в прошлом. Неожиданно обнаруженный ими пространственно-временной портал позволяет претворить в жизнь самый смелый план – переселить людей на 85 миллионов лет назад с целью повторного восстановления цивилизации. Семье Шеннонов выпадает честь присоединиться к десятому паломничеству переселенцев на Тerra Nova.

Качество: WEB-DLRip

Формат: AVI

Видео: Video: 320x176 (1.33:1), 25 fps, XviD build 50 ~327 kbps avg, 0.19 bit/pixel
Аудио: Audio: 48 kHz, MPEG Layer 3, 2 ch, ~128.00 kbps avg
GeneralComplete name : G:\Terra\Terra.Nova.S01E03.WEB-DLRip.aviFormat : AVIFormat/Info : Audio Video InterleaveFile size : 144 MiBDuration : 43mn 2sOverall bit rate : 468 KbpsWriting application : Lavf52.57.1

VideoID : 0Format : xvidCodec ID : xvidDuration : 43mn 2sBit rate : 327 KbpsWidth : 320 pixelsHeight : 176 pixelsDisplay aspect ratio : 16:9Frame rate : 23.976 fpsBits/(Pixel*Frame) : 0.242Stream size : 101 MiB (70%)

AudioID : 1Format : MPEG AudioFormat version : Version 1Format profile : Layer 3Codec ID : 55Codec ID/Hint : MP3Duration : 43mn 2sBit rate mode : ConstantBit rate : 128 KbpsChannel(s) : 2 channelsSampling rate : 48.0 KHzCompression mode : LossyStream size : 39.4 MiB (27%)Alignment : Aligned on interleavesInterleave, duration : 24 ms (0.58 video frame)Writing library : LAME3.98rEncoding settings : -m s -V 4 -q 2 -lowpass 17 -b 128


Трекер:  [ 09-Мар-2015 23:00 ]

  

Скачать .torrent

Размер .torrent файла 20 KB


Размер: 1.84 GB
Хэш (hash) релиза: 46e075b8949f938170dd9a8ab883f5d4f4d5da56

Еще никто не оставлял запись к записи скачать торрент [SERIAL] Терра Нова Terra Nova . Будь первым!

!Обратная связь