Edge.of.Isolation.2018.HDRip.XViD-ETRG | Джеральд Даррелл | Um Lugar Silencioso - Legendado Drama / Ficção / Suspense / Terror Idioma: Inglês 2018 MKV Torrent DownloadVídeo 10 / Áudio 10CompletoSinopse: Uma família vive numa casa de campo, em absoluto silêncio e se comunicando através de sinais, na tentativa de sobreviver à uma ameaça...

Скачать через торрент [SERIAL] Портал юрского периода: Новый мир Primeval: New World бесплатно русская версия torrent активатор

Статистика раздачи
Размер:  1.86 GB   |    Зарегистрирован:  3 года 4 месяца   |    .torrent скачан:  34 раза   |   
Раздают:  1  
   
загрузка...
 
Автор Сообщение

Galfimbul

avatar Galfimbul


Портал юрского периода: Новый мир / Primeval: New World

Год выпуска: 2012

Страна: Канада , Великобритания

Жанр: Научная фантастика, драма

Продолжительность: 00:44:00

Перевод: Профессиональный (многоголосый закадровый)

Cубтитры: нет

Режиссер: Аманда Тэппинг, Энди Микита, Мартин Вуд, Майк Рол

В ролях: Найалл Мэйттер, Сара Каннинг, Кристал Лоу, Миранда Фригон, Джофф Густафссон, Дэнни Рахим, Эндрю Ли Поттс

Описание: На территории Ванкувера неожиданно появляются динозавры и другие доисторические животные. Виной тому - аномалии, созданные порталами в пространстве и времени. Изучением этих аномалий и существ занимаются группа гражданских под предводительством Эвана Кросса.
«Портал юрского периода: Новый мир» — научно-фантастический сериал британско-канадского производства. Это спин-офф (ответвление) британского сериала «Портал юрского периода». События разворачиваются после пятого сезона оригинального сериала. Режиссируют сериал Аманда Тэппинг и Энди Микита (Звёздные врата)

Качество: DVDRip
Формат: AVI

Видео: Video: 320x176 (1.33:1), 25 fps, XviD build 50 ~328 kbps avg, 0.19 bit/pixel
Аудио: Audio: 48 kHz, MPEG Layer 3, 2 ch, ~128.00 kbps avg
GeneralComplete name : G:\Portal-2\Портал Юрского периода. Новый мир (1 сезон) (BaibaKo)\Primeval.New.World.s01e01.HDTVRip.XviD.Rus.Eng.BaibaKo.tv.aviFormat : AVIFormat/Info : Audio Video InterleaveFile size : 141 MiBDuration : 42mn 22sOverall bit rate : 467 KbpsWriting application : Lavf52.57.1

VideoID : 0Format : xvidCodec ID : xvidDuration : 42mn 22sBit rate : 328 KbpsWidth : 320 pixelsHeight : 176 pixelsDisplay aspect ratio : 16:9Frame rate : 23.976 fpsBits/(Pixel*Frame) : 0.243Stream size : 99.4 MiB (70%)

AudioID : 1Format : AC-3Format/Info : Audio Coding 3Mode extension : CM (complete main)Format settings, Endianness : BigCodec ID : 2000Duration : 42mn 22sBit rate mode : ConstantBit rate : 128 KbpsChannel(s) : 2 channelsChannel positions : Front: L RSampling rate : 48.0 KHzBit depth : 16 bitsCompression mode : LossyStream size : 38.8 MiB (27%)Alignment : Aligned on interleavesInterleave, duration : 32 ms (0.77 video frame)


Трекер:  [ 08-Мар-2015 17:00 ]

  

Скачать .torrent

Размер .torrent файла 21 KB


Размер: 1.86 GB
Хэш (hash) релиза: 07a049a7b68fa3718ecaf1d775d7f5c3ad5f8a4e

Торренты, похожие на [SERIAL] Портал юрского периода: Новый мир Primeval: New World скачать торрент

Форум Название Автор Размер S L Добавлен
Видео (Фильмы/Клипы) ·· [SERIAL] Портал юрского периода: Новый мир / Primeval: New World / Сезон: 1 / Серии: 1-13 из 13 (Аманда Тэппинг, Энди Микита, Мартин Вуд, Майк Рол) [2012, Научная фантастика, драма, HDTVRip, WEB-DLRip] [AVI, 320x] Galfimbul 20078234901.87 GB 0 0 1429019573

16:52

14-Апр-15

Еще никто не оставлял запись к записи скачать торрент [SERIAL] Портал юрского периода: Новый мир Primeval: New World . Будь первым!

!Обратная связь