Aquarium 4K – Live Wallpaper 1.0.1
Private Message

Скачать через торрент [MULT] Карапузы встречаются с Торнберри Rugrats Go Wild бесплатно русская версия torrent активатор

Статистика раздачи
Размер:  1008 MB   |    Зарегистрирован:  3 года 1 месяц   |    .torrent скачан:  50 раз   |   
Раздают:  1  
   
загрузка...
 
Автор Сообщение

Galfimbul

avatar Galfimbul


Карапузы встречаются с Торнберри / Rugrats Go Wild
«Spike Speaks»

Год выпуска: 2003
Страна: США
Жанр: мультфильм, комедия, приключения, семейный
Продолжительность: 01:20:49
Перевод №1: Профессиональный (дублированный)
Перевод №2: Профессиональный (многоголосый, закадровый)
Cубтитры: нет
Режиссер: Джон Энг / John Eng, Нортон Вирген / Norton Virgien
Роли озвучивали : Элизабет Дэйли, Нэнси Картрайт, Кэт Сауси, Дайонн Квон, Шерил Чейз, Тим Карри, Джо Аляски, Тресс МакНилл, Майкл Белл, Мелани Чартофф и другие .
Роли дублировали : Татьяна Весёлкина, Никита Прозоровский
Описание: [i]В этом мультике находчивые аниматоры «подружили» героев своих самых известных кинопроектов — неугомонных карапузов и славную семейку Торнберри! Ваши любимые карапузы отбывают в экзотическое путешествие! Жить без приключений грудняки категорически не желают, а приключения явно неравнодушны к забавным крошкам.
[b]Доп. информация
:
Релиз группы
Качество: WEB-DLRip / [url=...4954842]WEB-DL 720p[/url]
Формат: MP4
Видео кодек: H.264
Аудио кодек: AAC
Видео: 960x400 AR:2.40 1475 kbps, 23.976 fps
Аудио №1: [Russian] 2 ch, 48 kHz, 128 kbps - [DUB]
Аудио №2: [Russian] 2 ch, 48 kHz, 128 kbps - [MVO]
...last pass...

x264.exe: --pass 2 --bitrate 1475 --preset medium --profile high --level 4.1 --ref 8 --deblock 1:1 --merange 24 --no-chroma-me --direct auto --b-adapt 2 --no-fast-pskip --no-dct-decimate --subme 9 --colorprim bt709 --transfer bt709 --colormatrix bt709 --sar 1:1 --stats "J:\Rugrats Go Wild.2003.WEB-DL 720p.log" --output "J:\Rugrats Go Wild.2003.WEB-DL 720p.mp4" "J:\Temp\0058.avs"

avs [info]: 960x400p 1:1 @ 2500000/104271 fps (cfr)
x264 [info]: using SAR=1/1
x264 [info]: using cpu capabilities: MMX2 SSE2Fast SSSE3 SSE4.2 LZCNT
x264 [info]: profile High, level 4.1

x264 [info]: frame I:1254 Avg QP:17.09 size: 60568
x264 [info]: frame P:35384 Avg QP:19.72 size: 14915
x264 [info]: frame B:79627 Avg QP:22.79 size: 3645
x264 [info]: consecutive B-frames: 4.6% 8.7% 11.1% 75.7%
x264 [info]: mb I I16..4: 11.1% 45.0% 43.9%
x264 [info]: mb P I16..4: 4.8% 8.6% 6.0% P16..4: 39.1% 18.0% 13.7% 0.0% 0.0% skip: 9.8%
x264 [info]: mb B I16..4: 0.4% 1.0% 1.0% B16..8: 34.9% 7.1% 2.3% direct: 2.5% skip:50.8% L0:46.9% L1:47.8% BI: 5.3%
x264 [info]: 8x8 transform intra:44.0% inter:55.4%
x264 [info]: direct mvs spatial:92.9% temporal:7.1%
x264 [info]: coded y,uvDC,uvAC intra: 62.6% 79.0% 55.4% inter: 16.4% 25.2% 11.4%
x264 [info]: i16 v,h,dc,p: 43% 27% 15% 15%
x264 [info]: i8 v,h,dc,ddl,ddr,vr,hd,vl,hu: 9% 10% 14% 9% 12% 11% 12% 10% 14%
x264 [info]: i4 v,h,dc,ddl,ddr,vr,hd,vl,hu: 11% 12% 12% 9% 12% 10% 12% 9% 15%
x264 [info]: i8c dc,h,v,p: 45% 29% 17% 10%
x264 [info]: Weighted P-Frames: Y:1.9% UV:1.2%
x264 [info]: ref P L0: 59.6% 7.0% 13.9% 5.8% 4.3% 3.8% 3.1% 2.1% 0.3% 0.0%
x264 [info]: ref B L0: 78.8% 9.3% 5.5% 2.3% 2.0% 1.4% 0.8%
x264 [info]: ref B L1: 94.0% 6.0%
x264 [info]: kb/s:1474.82

x264 [total]: encoded 116265 frames, 26.95 fps, 1474.82 kb/s
GeneralComplete name : J:\Torrents\Rugrats Go Wild.2003.WEB-DLRip.x264.960x.rip by Frost O.S.mp4Format : MPEG-4Codec ID : M4VFile size : 1 008 MiBDuration : 1h 20mnOverall bit rate mode : VariableOverall bit rate : 1 743 KbpsMovie name : Rugrats Go Wild 2003 WEB-DLRip x264 960x rip by Frost O SContentType : Short FilmEncoded date : UTC 2015-03-07 12:34:16Tagged date : UTC 2015-03-07 12:37:14Writing application : MkvToMp4 version: 0.224 (x64)Cover : Yes

VideoID : 1Format : AVCFormat/Info : Advanced Video CodecFormat profile : [email protected] settings, CABAC : YesFormat settings, ReFrames : 8 framesCodec ID : avc1Codec ID/Info : Advanced Video CodingDuration : 1h 20mnBit rate : 1 475 KbpsMaximum bit rate : 6 695 KbpsWidth : 960 pixelsHeight : 400 pixelsDisplay aspect ratio : 2.40:1Frame rate mode : ConstantFrame rate : 23.976 fpsColor space : YUVChroma subsampling : 4:2:0Bit depth : 8 bitsScan type : ProgressiveBits/(Pixel*Frame) : 0.160Stream size : 853 MiB (85%)Writing library : x264 core 130 r2273 b3065e6Encoding settings : cabac=1 / ref=8 / deblock=1:1:1 / analyse=0x3:0x113 / me=hex / subme=9 / psy=1 / psy_rd=1.00:0.00 / mixed_ref=1 / me_range=16 / chroma_me=0 / trellis=1 / 8x8dct=1 / cqm=0 / deadzone=21,11 / fast_pskip=0 / chroma_qp_offset=-2 / threads=3 / lookahead_threads=1 / sliced_threads=0 / nr=0 / decimate=0 / interlaced=0 / bluray_compat=0 / constrained_intra=0 / bframes=3 / b_pyramid=2 / b_adapt=2 / b_bias=0 / direct=3 / weightb=1 / open_gop=0 / weightp=2 / keyint=250 / keyint_min=23 / scenecut=40 / intra_refresh=0 / rc_lookahead=40 / rc=2pass / mbtree=1 / bitrate=1475 / ratetol=1.0 / qcomp=0.60 / qpmin=0 / qpmax=69 / qpstep=4 / cplxblur=20.0 / qblur=0.5 / ip_ratio=1.40 / aq=1:1.00Language : EnglishEncoded date : UTC 2015-03-07 12:34:16Tagged date : UTC 2015-03-07 12:35:30Color primaries : BT.709Transfer characteristics : BT.709Matrix coefficients : BT.709

Audio #1ID : 2Format : AACFormat/Info : Advanced Audio CodecFormat profile : LCCodec ID : 40Duration : 1h 20mnBit rate mode : VariableBit rate : 128 KbpsMaximum bit rate : 132 KbpsChannel(s) : 2 channelsChannel positions : Front: L RSampling rate : 48.0 KHzCompression mode : LossyStream size : 74.0 MiB (7%)Title : [Dub]Language : RussianEncoded date : UTC 2015-03-07 12:34:39Tagged date : UTC 2015-03-07 12:35:30

Audio #2ID : 3Format : AACFormat/Info : Advanced Audio CodecFormat profile : LCCodec ID : 40Duration : 1h 20mnBit rate mode : VariableBit rate : 128 KbpsMaximum bit rate : 131 KbpsChannel(s) : 2 channelsChannel positions : Front: L RSampling rate : 48.0 KHzCompression mode : LossyStream size : 74.0 MiB (7%)Title : [MVO]Language : RussianEncoded date : UTC 2015-03-07 12:35:15Tagged date : UTC 2015-03-07 12:35:30


Трекер:  [ 07-Мар-2015 17:30 ]

  

Скачать .torrent

Размер .torrent файла 20 KB


Размер: 1008 MB
Хэш (hash) релиза: f11ebae9d486086e0b1e90a13a80d9ee61577038

Еще никто не оставлял запись к записи скачать торрент [MULT] Карапузы встречаются с Торнберри Rugrats Go Wild . Будь первым!

!Обратная связь