The Great Pret season 11 episode 12 | Z Nation | Tomb Raider Truefrench TS

Скачать через торрент [VIDEO] Форсаж 6 Fast & Furious 6 бесплатно русская версия torrent активатор

Статистика раздачи
Размер:  1001 MB   |    Зарегистрирован:  3 года 4 месяца   |    .torrent скачан:  49 раз   |   
Раздают:  1  
   
загрузка...
 
Автор Сообщение

Galfimbul

avatar Galfimbul


Форсаж 6
Fast & Furious 6

Год выпуска: 2013
Страна: США (Original Film )
Жанр: Боевик, триллер, драма, криминал
Продолжительность: 02:11:02
Перевод: Профессиональный (дублированный)
Оригинальная дорожка: Английский
Cубтитры: Русские отключаемые, полные
Режиссер: Джастин Лин / Justin Lin
В ролях: Вин Дизель, Дуэйн Джонсон, Пол Уокер, Мишель Родригес, Люк Эванс, Джина Карано, Эльза Патаки, Джордана Брюстер, Санг Кенг, Галь Гадот, Тайриз Гибсон, Лудакрис, Джо Таслим, Алистер МакНаб, Дэнис Хорошко, Марк Бэдхэм, Бао Тию, Леон Корбин, Виктор Гарднер, Клара Пэджет, Пойнтон, Сьёнг Лун Чун, Джеймс Хэа, Глен Стэнуэй, Льюис Джеймс, Джоаккино Джим Куффаро, Алекс Мартин, Дэвид Аджала, Стивен Маркус
Описание: После того как Доминик и Брайн побывали в Рио, где они ограбили и свергли империю вора в законе, их команда получила 100 миллионов, и наши герои оказались разбросаны по всему миру. Но их привычка вечно жить в бегах не даёт им покоя. Между тем, Хоббс отслеживал организацию смертельно опасных наёмников-водителей по двенадцати странам. Единственный способ остановить эту криминальную группу — это превзойти их на улицах, поэтому Хоббс просит Доминика собрать его элитную команду в Лондоне. За это он обещает полное помилование для Доминика и его друзей, чтобы они смогли наконец вернуться домой к своей семье.

Качество: HDRip
Формат: MP4
Видео: AVC, 640х272 (2.35:1), 800 kbps, 23.976 fps
Аудио 1: Русский, AAC, 2 ch, 48 kHz, 128 kbps [Dub]
Аудио 2: Английский, AAC, 2 ch, 48 kHz, 128 kbps [Original]
Несколько машин для фильма были созданы в расположенном в Калифорнии автоателье Lucra Cars.
Деннис МакКарти (Dennis McCarthy), ответственный за автомобили, используемые в фильме, сказал, что для съемок одной сцены они использовали «целый флот из BMW M5s». МакКарти также сказал: «Затем мы разбили практически все эти машины во время съемок других сцен».
Автомобиль Dodge Daytona, на котором ездит Вин Дизель, был сделан на заказ. Машина была переделана МакКарти и его командой из старого авто, которое они первоначально купили за 5000 долларов.
Джейсон Стэйтем и Дэвид Теннант рассматривались на роль злодея, которая в итоге отошла Люку Эвансу.
В автомате с едой, в который Хоббс стреляет в сцене в Лондоне, находятся шоколадки, встречающиеся только в подобных автоматах в США, а не в Великобритании.
Перед сценой на базе НАТО Люк разговаривает по телефону и видно, что он побрит. В следующей сцене у него снова французская бородка.
Хоббс говорит, что у BMW M5 — двигатель V8. У нынешнего варианта F10 — он действительно такой, но у старого E60, который показывают в фильме, обычный безнаддувный V10.
Независимо от того, где герои находятся, в Лондоне, они всегда проезжают мимо одного и того же двухэтажного автобуса N 4.
В сцене, где Вин Дизель гонится за самолетом, он не переключил передачу — он просто дотронулся до коробки автомата.
В сцене перед отделением Интерпола, кода преступники уезжают, Жезель берет оружие и начинает выбегать на середину улицы, справа видно, что там стоят пожарный гидрант и рядом ещё ящик для газет. Потом кадр переключается наверх, откуда на нее смотрит снайпер, и там четко видно, что она стоит почти на средине дороги и пожарного гидранта и ящика для газет уже нету, в следующий момент на Жезель набрасывается Хан, спасая её от пуль снайпера, и там «чудом» появляется пожарный гидрант и ящик для газет, за ними Жезель и Хан укрывается от стрельбы снайпера.
x264 [info]: frame I:3234 Avg QP:16.12
x264 [info]: frame P:57773 Avg QP:18.97
x264 [info]: frame B:127513 Avg QP:22.52
General
Complete name : [VIDEO] Fast.&.Furious.6.2013.HDRip.x264.640x(semen_52-TNC).mp4
Format : MPEG-4
Format profile : Base Media
Codec ID : isom
File size : 1 001 MiB
Duration : 2h 11mn
Overall bit rate mode : Variable
Overall bit rate : 1 068 Kbps
Movie name : [VIDEO] Fast & Furious 6 2013 HDRip x264 640x(semen_52-TNC)
ContentType : Short Film
Encoded date : UTC 2015-03-04 14:23:46
Tagged date : UTC 2015-03-04 14:24:58
Writing application : MkvToMp4 version: 0.224 (x64)
Comment : Rip by semen_52-TNC

Video
ID : 1
Format : AVC
Format/Info : Advanced Video Codec
Format profile : [email protected]
Format settings, CABAC : Yes
Format settings, ReFrames : 8 frames
Codec ID : avc1
Codec ID/Info : Advanced Video Coding
Duration : 2h 11mn
Bit rate : 800 Kbps
Maximum bit rate : 5 230 Kbps
Width : 640 pixels
Height : 272 pixels
Display aspect ratio : 2.35:1
Frame rate mode : Constant
Frame rate : 23.976 fps
Color space : YUV
Chroma subsampling : 4:2:0
Bit depth : 8 bits
Scan type : Progressive
Bits/(Pixel*Frame) : 0.192
Stream size : 750 MiB (75%)
Writing library : x264 core 125 r2200 999b753
Encoding settings : cabac=1 / ref=8 / deblock=1:0:0 / analyse=0x3:0x133 / me=umh / subme=9 / psy=1 / psy_rd=1.00:0.00 / mixed_ref=1 / me_range=16 / chroma_me=1 / trellis=2 / 8x8dct=1 / cqm=0 / deadzone=21,11 / fast_pskip=0 / chroma_qp_offset=-2 / threads=9 / lookahead_threads=1 / sliced_threads=0 / nr=0 / decimate=1 / interlaced=0 / bluray_compat=0 / constrained_intra=0 / bframes=3 / b_pyramid=2 / b_adapt=2 / b_bias=0 / direct=3 / weightb=1 / open_gop=0 / weightp=2 / keyint=250 / keyint_min=25 / scenecut=40 / intra_refresh=0 / rc_lookahead=70 / rc=2pass / mbtree=1 / bitrate=800 / ratetol=1.0 / qcomp=0.60 / qpmin=0 / qpmax=69 / qpstep=4 / cplxblur=20.0 / qblur=0.5 / ip_ratio=1.40 / aq=1:1.00
Language : English
Encoded date : UTC 2015-03-04 14:23:46
Tagged date : UTC 2015-03-04 14:24:14

Audio #1
ID : 2
Format : AAC
Format/Info : Advanced Audio Codec
Format profile : LC
Codec ID : 40
Duration : 2h 11mn
Bit rate mode : Variable
Bit rate : 128 Kbps
Maximum bit rate : 135 Kbps
Channel(s) : 2 channels
Channel positions : Front: L R
Sampling rate : 48.0 KHz
Compression mode : Lossy
Stream size : 120 MiB (12%)
Title : Dub / Dub
Language : Russian
Encoded date : UTC 2015-03-04 14:24:01
Tagged date : UTC 2015-03-04 14:24:14

Audio #2
ID : 3
Format : AAC
Format/Info : Advanced Audio Codec
Format profile : LC
Codec ID : 40
Duration : 2h 11mn
Bit rate mode : Variable
Bit rate : 128 Kbps
Maximum bit rate : 133 Kbps
Channel(s) : 2 channels
Channel positions : Front: L R
Sampling rate : 48.0 KHz
Compression mode : Lossy
Stream size : 120 MiB (12%)
Title : Original / Original
Language : English
Encoded date : UTC 2015-03-04 14:24:08
Tagged date : UTC 2015-03-04 14:24:14

Text
ID : 4
Format : Timed Text
Muxing mode : sbtl
Codec ID : tx3g
Duration : 2h 4mn
Bit rate mode : Variable
Bit rate : 71 bps
Stream size : 64.7 KiB (0%)
Title : Full / Full
Language : Russian
Encoded date : UTC 2015-03-04 14:24:14
Tagged date : UTC 2015-03-04 14:24:14


Трекер:  [ 04-Мар-2015 18:00 ]

  

Скачать .torrent

Размер .torrent файла 20 KB


Размер: 1001 MB
Хэш (hash) релиза: e577f0b3a14584fdd63060649ef2e12a156db23e

Еще никто не оставлял запись к записи скачать торрент [VIDEO] Форсаж 6 Fast & Furious 6 . Будь первым!

!Обратная связь