Martin McCann | Tập 16 Power Rangers Super Dino Charge | Я – Четвертый / I Am Number Four (2011)

Скачать через торрент [VIDEO] Мужчины, женщины и дети Men, Women & Children бесплатно русская версия torrent активатор

Статистика раздачи
Размер:  1.31 GB   |    Зарегистрирован:  3 года 4 месяца   |    .torrent скачан:  35 раз   |   
Раздают:  1  
   
загрузка...
 
Автор Сообщение

Galfimbul

avatar Galfimbul


Мужчины, женщины и дети
Men, Women & Children

Год выпуска: 2014
Страна: США (Paramount Pictures, Right of Way Films)
Жанр: Драма, комедия
Продолжительность: 01:59:50
Перевод: Профессиональный (дублированный)
Оригинальная дорожка: Английский
Cубтитры: Русские отключаемые, полные
Режиссер: Джейсон Райтман / Jason Reitman
В ролях: Адам Сэндлер, Дженнифер Гарнер, Розмари ДеУитт, Джуди Грир, Дин Норрис, Эмма Томпсон, Тимоти Чаламет, Оливия Крочиккия, Кейтлин Девер, Энсел Элгорт
Описание: История о группе подростков и их родителях, которые пытаются понять, как интернет изменил их отношения, их связь, самооценку и любовь друг к другу.

Качество: HDRip (Рип с BDRip 1080p)
Формат: MP4
Видео: AVC, 960x536 (16:9), 1303 kbps, 23.976 fps
Аудио 1: Русский, AAC, 2 ch, 48 kHz, 128 kbps [Dub]
Аудио 2: Английский, AAC, 2 ch, 48 kHz, 128 kbps [Original]
Фильм снят по мотивам романа Чада Калтгена «Мужчины, женщины и дети» (Men, Women and Children, 2011).
x264 [info]: frame I:1140 Avg QP:12.44 size: 80531
x264 [info]: frame P:32519 Avg QP:15.73 size: 18496
x264 [info]: frame B:138180 Avg QP:18.44 size: 3432

x264 [total]: encoded 171839 frames, 5.27 fps, 1303.13 kb/s
General
Complete name : [VIDEO] Men.Women.and.Children.2014.HDRip.x264.960x(semen_52-TNC).mp4
Format : MPEG-4
Format profile : Base Media
Codec ID : isom
File size : 1.31 GiB
Duration : 1h 59mn
Overall bit rate mode : Variable
Overall bit rate : 1 570 Kbps
Movie name : [VIDEO] Men Women and Children 2014 HDRip x264 960x(semen_52-TNC)
ContentType : Short Film
Encoded date : UTC 2015-03-02 19:50:10
Tagged date : UTC 2015-03-02 19:52:11
Writing application : MkvToMp4 version: 0.224 (x64)
Comment : Rip by semen-52-TNC

Video
ID : 1
Format : AVC
Format/Info : Advanced Video Codec
Format profile : [email protected]
Format settings, CABAC : Yes
Format settings, ReFrames : 8 frames
Codec ID : avc1
Codec ID/Info : Advanced Video Coding
Duration : 1h 59mn
Bit rate : 1 303 Kbps
Maximum bit rate : 7 614 Kbps
Width : 960 pixels
Height : 536 pixels
Display aspect ratio : 16:9
Frame rate mode : Constant
Frame rate : 23.976 fps
Color space : YUV
Chroma subsampling : 4:2:0
Bit depth : 8 bits
Scan type : Progressive
Bits/(Pixel*Frame) : 0.106
Stream size : 1.09 GiB (83%)
Writing library : x264 core 130 r2273 b3065e6
Encoding settings : cabac=1 / ref=8 / deblock=1:-3:-3 / analyse=0x3:0x133 / me=esa / subme=9 / psy=1 / psy_rd=1.00:0.10 / mixed_ref=1 / me_range=32 / chroma_me=1 / trellis=2 / 8x8dct=1 / cqm=0 / deadzone=21,11 / fast_pskip=0 / chroma_qp_offset=-3 / threads=12 / lookahead_threads=2 / sliced_threads=0 / nr=0 / decimate=1 / interlaced=0 / bluray_compat=0 / constrained_intra=0 / bframes=11 / b_pyramid=2 / b_adapt=2 / b_bias=0 / direct=1 / weightb=1 / open_gop=0 / weightp=2 / keyint=250 / keyint_min=25 / scenecut=40 / intra_refresh=0 / rc_lookahead=60 / rc=crf / mbtree=1 / crf=17.0 / qcomp=0.60 / qpmin=0 / qpmax=69 / qpstep=4 / ip_ratio=1.40 / aq=1:1.00
Language : English
Encoded date : UTC 2015-03-02 19:50:10
Tagged date : UTC 2015-03-02 19:51:29

Audio #1
ID : 2
Format : AAC
Format/Info : Advanced Audio Codec
Format profile : LC
Codec ID : 40
Duration : 1h 59mn
Bit rate mode : Variable
Bit rate : 128 Kbps
Maximum bit rate : 135 Kbps
Channel(s) : 2 channels
Channel positions : Front: L R
Sampling rate : 48.0 KHz
Compression mode : Lossy
Stream size : 109 MiB (8%)
Title : Dub / Dub
Language : Russian
Encoded date : UTC 2015-03-02 19:50:27
Tagged date : UTC 2015-03-02 19:51:29

Audio #2
ID : 3
Format : AAC
Format/Info : Advanced Audio Codec
Format profile : LC
Codec ID : 40
Duration : 1h 59mn
Bit rate mode : Variable
Bit rate : 128 Kbps
Maximum bit rate : 135 Kbps
Channel(s) : 2 channels
Channel positions : Front: L R
Sampling rate : 48.0 KHz
Compression mode : Lossy
Stream size : 109 MiB (8%)
Title : Original / Original
Language : English
Encoded date : UTC 2015-03-02 19:51:09
Tagged date : UTC 2015-03-02 19:51:29

Text
ID : 4
Format : Timed Text
Muxing mode : sbtl
Codec ID : tx3g
Duration : 1h 59mn
Bit rate mode : Variable
Bit rate : 70 bps
Stream size : 61.6 KiB (0%)
Title : Full / Full
Language : Russian
Encoded date : UTC 2015-03-02 19:51:29
Tagged date : UTC 2015-03-02 19:51:29


Трекер:  [ 03-Мар-2015 20:00 ]

  

Скачать .torrent

Размер .torrent файла 13 KB


Размер: 1.31 GB
Хэш (hash) релиза: 414c3b6ee0bbeafda038adf92fb2bea8fbb3c1dd

Еще никто не оставлял запись к записи скачать торрент [VIDEO] Мужчины, женщины и дети Men, Women & Children . Будь первым!

!Обратная связь