Greg De Cuir | Dragon Ball Perfect Edition Tome 01 | Season 2 Episode 1 The Housewives are Back!

Скачать через торрент [VIDEO] Путь дракона Meng long guo jiang бесплатно русская версия torrent активатор

Статистика раздачи
Размер:  1.27 GB   |    Зарегистрирован:  3 года 4 месяца   |    .torrent скачан:  64 раза   |   
Раздают:  1  
   
загрузка...
 
Автор Сообщение

Galfimbul

avatar Galfimbul


Путь дракона / Meng long guo jiangслоган «MAN, CAN WE USE HIM NOW! Bruce Lee is back in the fantastic all new adventures of the Super Hero from 'Enter the Dragon...' ..his last performance is his best!»

Год выпуска: 1972
Страна: Гонконг
Жанр: боевик, триллер, драма, комедия, криминал
Продолжительность: 01:38:40
Перевод №1: Русский Профессиональный (многоголосый, закадровый) Superbit
Перевод №2: Украинский Профессиональный (многоголосый, закадровый)
Перевод №3: Русский Авторский (одноголосый, закадровый) Юрий Живов
Cубтитры: нет
Режиссер: Брюс Ли / Bruce Lee
В ролях: Брюс Ли / Bruce Lee, Нора Миао / Nora Miao, Чун Синь Хуан / Chung Hsin Huang, Пин-Ао Вэй / Ping-Ao Wei, Чак Норрис / Chuck Norris, Роберт Уолл / Robert Wall, Инг-Сик Вэнг / Ing-Sik Whang, Ди Чин / Di Chin, Тони Лю / Tony Liu, Литтл Юникорн / Little Unicorn, Мализа Лонго / Malisa Longo, Фу Чинг Чен / Fu Ching Chen и другие .
Описание: Тан приезжает из Гонконга в Рим, чтобы помочь друзьям семьи, чей ресторан задумали отобрать местные мафиози. Привыкшие всегда получать то, что захотят и не останавливаться ни перед чем, бандиты совершили большую ошибку, недооценив с виду скромного молодого человека.

Сцена сражения Брюса Ли с Чаком Норрисом в колизее снималась в павильоне студии Golden Harvest.
Фильм снимался без звука. Весь саундтрек был создан при монтаже.
Фильм снимался в римском Колизее.
В фильме используется не только оригинальная музыка, но и музыка Эннио Морриконе, написанная для вестерна Серджио Леоне.
В американском прокате фильм был назван «Возвращение дракона» для того, чтобы развить успех другого фильма с Брюсом Ли «Выход Дракона» (1973), который вышел в прокат чуть раньше.

[b]Доп. информация
:
Релиз группы
Качество: HDRip / [i][url=...4010291]Исходник: BDRip 720p[/url]
Формат: MP4
Видео кодек: H.264
Аудио кодек: AAC
Видео: 960x408 AR:2.35 1442 kbps, 23.976 fps
Аудио №1: [Russian] 2ch 48 kHz 128 kbps [MVO]
Аудио№2: [Ukrainian] 2ch 48 kHz 128 kbps [MVO]
Аудио №3: [Russian] 2ch 48 kHz 128 kbps [VO]
...last pass...

x264.exe: --pass 2 --bitrate 1442 --preset medium --profile high --level 4.1 --ref 8 --deblock -3:-3 --merange 24 --no-chroma-me --direct auto --b-adapt 2 --no-fast-pskip --no-dct-decimate --subme 9 --me umh --colorprim bt709 --transfer bt709 --colormatrix bt709 --sar 1:1 --stats "J:\Meng.long.guo.jiang.1972.HDRip.x264.960x.rip by Frost O.S.log" --output "J:\Meng.long.guo.jiang.1972.HDRip.x264.960x.rip by Frost O.S.mp4" "J:\Temp\0050.avs"

avs [info]: 960x408p 1:1 @ 2500000/104271 fps (cfr)
x264 [info]: using SAR=1/1
x264 [info]: using cpu capabilities: MMX2 SSE2Fast SSSE3 SSE4.2 LZCNT
x264 [info]: profile High, level 4.1

x264 [info]: frame I:1103 Avg QP:18.11 size: 52686
x264 [info]: frame P:39301 Avg QP:20.76 size: 15165
x264 [info]: frame B:101555 Avg QP:23.44 size: 4067
x264 [info]: consecutive B-frames: 1.8% 3.2% 15.7% 79.3%
x264 [info]: mb I I16..4: 5.1% 74.7% 20.1%
x264 [info]: mb P I16..4: 0.6% 4.3% 1.2% P16..4: 49.5% 25.7% 16.2% 0.0% 0.0% skip: 2.4%
x264 [info]: mb B I16..4: 0.0% 0.5% 0.2% B16..8: 45.3% 7.6% 2.0% direct: 3.1% skip:41.2% L0:42.3% L1:49.7% BI: 7.9%
x264 [info]: 8x8 transform intra:71.8% inter:62.7%
x264 [info]: direct mvs spatial:97.9% temporal:2.1%
x264 [info]: coded y,uvDC,uvAC intra: 89.7% 86.5% 56.3% inter: 27.8% 30.5% 6.6%
x264 [info]: i16 v,h,dc,p: 32% 28% 8% 32%
x264 [info]: i8 v,h,dc,ddl,ddr,vr,hd,vl,hu: 15% 7% 2% 10% 15% 14% 14% 11% 12%
x264 [info]: i4 v,h,dc,ddl,ddr,vr,hd,vl,hu: 10% 9% 2% 9% 15% 15% 15% 12% 13%
x264 [info]: i8c dc,h,v,p: 35% 26% 21% 17%
x264 [info]: Weighted P-Frames: Y:17.0% UV:4.6%
x264 [info]: ref P L0: 43.9% 14.0% 17.0% 6.4% 5.8% 4.5% 4.6% 2.7% 1.0% 0.1%
x264 [info]: ref B L0: 76.7% 11.1% 5.2% 2.6% 2.1% 1.5% 0.9%
x264 [info]: ref B L1: 94.2% 5.8%
x264 [info]: kb/s:1441.93

x264 [total]: encoded 141959 frames, 16.81 fps, 1441.93 kb/s
GeneralComplete name : J:\Torrents\Meng.long.guo.jiang.1972.HDRip.x264.960x.rip by Frost O.S.mp4Format : MPEG-4Codec ID : M4VFile size : 1.27 GiBDuration : 1h 38mnOverall bit rate mode : VariableOverall bit rate : 1 841 KbpsMovie name : Meng long guo jiang 1972 HDRip x264 960x rip by Frost O SPerformer : Bruce LeeGenre : ActionContentType : Short FilmEncoded date : UTC 2015-03-03 12:48:19Tagged date : UTC 2015-03-03 12:51:16Writing application : MkvToMp4 version: 0.224 (x64)Cover : YesComment : rip by Frost O.SContentRating : ru-movie|16+|375|iTunMOVI : <?xml version="1.0" encoding="UTF-8"?> / <!DOCTYPE plist PUBLIC "-//Apple//DTD PLIST 1.0//EN" "http://www.apple.com/DTDs/PropertyList-1.0.dtd"> / <plist version="1.0"> / <dict> / <key>directors</key> / <array> / <dict> / <key>name</key> / <string>Bruce Lee</string> / </dict> / </array> / </dict> / </plist>

VideoID : 1Format : AVCFormat/Info : Advanced Video CodecFormat profile : [email protected] settings, CABAC : YesFormat settings, ReFrames : 8 framesCodec ID : avc1Codec ID/Info : Advanced Video CodingDuration : 1h 38mnBit rate : 1 442 KbpsMaximum bit rate : 4 319 KbpsWidth : 960 pixelsHeight : 408 pixelsDisplay aspect ratio : 2.35:1Frame rate mode : ConstantFrame rate : 23.976 fpsColor space : YUVChroma subsampling : 4:2:0Bit depth : 8 bitsScan type : ProgressiveBits/(Pixel*Frame) : 0.154Stream size : 1 018 MiB (78%)Writing library : x264 core 130 r2273 b3065e6Encoding settings : cabac=1 / ref=8 / deblock=1:-3:-3 / analyse=0x3:0x113 / me=umh / subme=9 / psy=1 / psy_rd=1.00:0.00 / mixed_ref=1 / me_range=24 / chroma_me=0 / trellis=1 / 8x8dct=1 / cqm=0 / deadzone=21,11 / fast_pskip=0 / chroma_qp_offset=-2 / threads=3 / lookahead_threads=1 / sliced_threads=0 / nr=0 / decimate=0 / interlaced=0 / bluray_compat=0 / constrained_intra=0 / bframes=3 / b_pyramid=2 / b_adapt=2 / b_bias=0 / direct=3 / weightb=1 / open_gop=0 / weightp=2 / keyint=250 / keyint_min=23 / scenecut=40 / intra_refresh=0 / rc_lookahead=40 / rc=2pass / mbtree=1 / bitrate=1442 / ratetol=1.0 / qcomp=0.60 / qpmin=0 / qpmax=69 / qpstep=4 / cplxblur=20.0 / qblur=0.5 / ip_ratio=1.40 / aq=1:1.00Language : EnglishEncoded date : UTC 2015-03-03 12:48:19Tagged date : UTC 2015-03-03 12:49:16Color primaries : BT.709Transfer characteristics : BT.709Matrix coefficients : BT.709

Audio #1ID : 2Format : AACFormat/Info : Advanced Audio CodecFormat profile : LCCodec ID : 40Duration : 1h 38mnBit rate mode : VariableBit rate : 128 KbpsMaximum bit rate : 135 KbpsChannel(s) : 2 channelsChannel positions : Front: L RSampling rate : 48.0 KHzCompression mode : LossyStream size : 90.3 MiB (7%)Title : [MVO] SuperbitLanguage : RussianEncoded date : UTC 2015-03-03 12:48:36Tagged date : UTC 2015-03-03 12:49:16

Audio #2ID : 3Format : AACFormat/Info : Advanced Audio CodecFormat profile : LCCodec ID : 40Duration : 1h 38mnBit rate mode : VariableBit rate : 128 KbpsMaximum bit rate : 135 KbpsChannel(s) : 2 channelsChannel positions : Front: L RSampling rate : 48.0 KHzCompression mode : LossyStream size : 90.3 MiB (7%)Title : [MVO]Language : UkrainianEncoded date : UTC 2015-03-03 12:48:56Tagged date : UTC 2015-03-03 12:49:16

Audio #3ID : 4Format : AACFormat/Info : Advanced Audio CodecFormat profile : LCCodec ID : 40Duration : 1h 38mnBit rate mode : VariableBit rate : 128 KbpsMaximum bit rate : 134 KbpsChannel(s) : 2 channelsChannel positions : Front: L RSampling rate : 48.0 KHzCompression mode : LossyStream size : 90.3 MiB (7%)Title : [VO] ZhuvovLanguage : RussianEncoded date : UTC 2015-03-03 12:49:05Tagged date : UTC 2015-03-03 12:49:16


Трекер:  [ 03-Мар-2015 18:30 ]

  

Скачать .torrent

Размер .torrent файла 13 KB


Размер: 1.27 GB
Хэш (hash) релиза: 3df808525f8f57c5d833db35cfdb99db3a9276b6

Торренты, похожие на [VIDEO] Путь дракона Meng long guo jiang скачать торрент

Форум Название Автор Размер S L Добавлен
Видео (Фильмы/Клипы) ·· [VIDEO] Путь дракона / Meng long guo jiang (Брюс Ли / Bruce Lee) [1972, боевик, триллер, драма, комедия, криминал, HDRip] [MP4, 480x] MVO Galfimbul 478549238456 MB 0 0 1425397842

18:50

3-Мар-15

Еще никто не оставлял запись к записи скачать торрент [VIDEO] Путь дракона Meng long guo jiang . Будь первым!

!Обратная связь