I Will Be Glad | Showtime | морозные узоры

Скачать через торрент [VIDEO] Путь дракона Meng long guo jiang бесплатно русская версия torrent активатор

Статистика раздачи
Размер:  456 MB   |    Зарегистрирован:  3 года 4 месяца   |    .torrent скачан:  33 раза   |   
Раздают:  1  
   
загрузка...
 
Автор Сообщение

Galfimbul

avatar Galfimbul


Путь дракона / Meng long guo jiangслоган «MAN, CAN WE USE HIM NOW! Bruce Lee is back in the fantastic all new adventures of the Super Hero from 'Enter the Dragon...' ..his last performance is his best!»

Год выпуска: 1972
Страна: Гонконг
Жанр: боевик, триллер, драма, комедия, криминал
Продолжительность: 01:38:40
Перевод: Русский Профессиональный (многоголосый, закадровый) Superbit
Cубтитры: нет
Режиссер: Брюс Ли / Bruce Lee
В ролях: Брюс Ли / Bruce Lee, Нора Миао / Nora Miao, Чун Синь Хуан / Chung Hsin Huang, Пин-Ао Вэй / Ping-Ao Wei, Чак Норрис / Chuck Norris, Роберт Уолл / Robert Wall, Инг-Сик Вэнг / Ing-Sik Whang, Ди Чин / Di Chin, Тони Лю / Tony Liu, Литтл Юникорн / Little Unicorn, Мализа Лонго / Malisa Longo, Фу Чинг Чен / Fu Ching Chen и другие .
Описание: Тан приезжает из Гонконга в Рим, чтобы помочь друзьям семьи, чей ресторан задумали отобрать местные мафиози. Привыкшие всегда получать то, что захотят и не останавливаться ни перед чем, бандиты совершили большую ошибку, недооценив с виду скромного молодого человека.

Сцена сражения Брюса Ли с Чаком Норрисом в колизее снималась в павильоне студии Golden Harvest.
Фильм снимался без звука. Весь саундтрек был создан при монтаже.
Фильм снимался в римском Колизее.
В фильме используется не только оригинальная музыка, но и музыка Эннио Морриконе, написанная для вестерна Серджио Леоне.
В американском прокате фильм был назван «Возвращение дракона» для того, чтобы развить успех другого фильма с Брюсом Ли «Выход Дракона» (1973), который вышел в прокат чуть раньше.

[b]Доп. информация
:
Релиз группы
Качество: HDRip / [i][url=...4010291]Исходник: BDRip 720p[/url]
Формат: MP4
Видео кодек: XVID 1.2.1
Аудио кодек: AAC
Видео: 480x200 AR:2.40 512 kbps, 23.976 fps
Аудио: [Russian] 2ch 48 kHz 128 kbps [MVO]
GeneralComplete name : J:\Torrents\Meng.long.guo.jiang.1972.HDRip.XVID.480x.rip by Frost O.S.mp4Format : MPEG-4Codec ID : M4VFile size : 456 MiBDuration : 1h 38mnOverall bit rate mode : VariableOverall bit rate : 647 KbpsMovie name : Meng long guo jiang 1972 HDRip XVID 480x rip by Frost O SPerformer : Bruce LeeGenre : ActionContentType : Short FilmEncoded date : UTC 2015-03-03 12:41:24Tagged date : UTC 2015-03-03 12:41:53Writing application : MkvToMp4 version: 0.224 (x64)Cover : YesComment : rip by Frost O.SContentRating : ru-movie|16+|375|iTunMOVI : <?xml version="1.0" encoding="UTF-8"?> / <!DOCTYPE plist PUBLIC "-//Apple//DTD PLIST 1.0//EN" "http://www.apple.com/DTDs/PropertyList-1.0.dtd"> / <plist version="1.0"> / <dict> / <key>directors</key> / <array> / <dict> / <key>name</key> / <string>Bruce Lee</string> / </dict> / </array> / </dict> / </plist>

VideoID : 1Format : MPEG-4 VisualFormat profile : Advanced [email protected] settings, BVOP : YesFormat settings, QPel : NoFormat settings, GMC : No warppointsFormat settings, Matrix : Default (H.263)Codec ID : 20Duration : 1h 38mnBit rate mode : VariableBit rate : 511 KbpsMaximum bit rate : 2 406 KbpsWidth : 480 pixelsHeight : 200 pixelsDisplay aspect ratio : 2.40:1Frame rate mode : ConstantFrame rate : 23.976 fpsColor space : YUVChroma subsampling : 4:2:0Bit depth : 8 bitsScan type : ProgressiveCompression mode : LossyBits/(Pixel*Frame) : 0.222Stream size : 361 MiB (79%)Writing library : XviD 1.2.1 (UTC 2008-12-04)Language : EnglishTagged date : UTC 2015-03-03 12:41:32

AudioID : 2Format : AACFormat/Info : Advanced Audio CodecFormat profile : LCCodec ID : 40Duration : 1h 38mnBit rate mode : VariableBit rate : 128 KbpsMaximum bit rate : 135 KbpsChannel(s) : 2 channelsChannel positions : Front: L RSampling rate : 48.0 KHzCompression mode : LossyStream size : 90.3 MiB (20%)Title : [MVO] SuperbitLanguage : RussianEncoded date : UTC 2015-03-03 12:41:28Tagged date : UTC 2015-03-03 12:41:32


Трекер:  [ 03-Мар-2015 18:30 ]

  

Скачать .torrent

Размер .torrent файла 18 KB


Размер: 456 MB
Хэш (hash) релиза: f2600cd1e4cff25941e04fa8f17368070e0b6dc7

Торренты, похожие на [VIDEO] Путь дракона Meng long guo jiang скачать торрент

Форум Название Автор Размер S L Добавлен
Видео (Фильмы/Клипы) ·· [VIDEO] Путь дракона / Meng long guo jiang (Брюс Ли / Bruce Lee) [1972, боевик, триллер, драма, комедия, криминал, HDRip] [MP4, 960x] 2xMVO, VO Живов Galfimbul 13626946791.27 GB 0 0 1425397846

18:50

3-Мар-15

Еще никто не оставлял запись к записи скачать торрент [VIDEO] Путь дракона Meng long guo jiang . Будь первым!

!Обратная связь