Just Like Heaven (The Cure) | Gatos. Un viaje de vuelta a casa | John S Bowman Peter Kerasiotis Sherry Marker Heidi Sarna Frommers Greece 8th Edition

Скачать через торрент [VIDEO] Человек в зеленом кимоно бесплатно русская версия torrent активатор

Статистика раздачи
Размер:  577 MB   |    Зарегистрирован:  3 года 4 месяца   |    .torrent скачан:  34 раза   |   
Раздают:  1  
   
загрузка...
 
Автор Сообщение

Galfimbul

avatar Galfimbul


Человек в зеленом кимоно

Год выпуска: 1991
Страна: CCCP
Жанр: боевик
Продолжительность: 01:06:19
Перевод: Профессиональный (дублированный)
Cубтитры: нет
Режиссеры: Борис Кантемиров, Тамерлан Каргаев
В ролях : Нодар Плиев, Олег Кантемиров, Ирина Гереклиева-Моисеева, Георгий Татонов, Тимур Азиев, Тамерлан Шабанов, Александр Мажидов, Джамаил Сулейманов, Чермен Засеев и другие.
Роли дублировали : Александр Рахленко, Дмитрий Матвеев, Любовь Германова, Борис Токарев, Юрий Маляров, Сергей Малишевский, Александр Рыжков, Вадим Андреев, Дмитрий Полонский и другие.
Описание: Обладатель черного пояса по карате Таму возвращается в свой город после долгого отсутствия с целью открыть собственную школу. Некто Седой, покровительствующий уже существующей в городе секции, оказывает поддержку Таму — и предоставляет спортзал, требуя взамен полного подчинения….
Доп. информация:
Релиз группы
Качество: TVRip / [url=...3713773]TVRip[/url]
Формат: MP4
Видео кодек: XVID 1.2.1
Аудио кодек: AAC
Видео: 464x360 AR:1.289 1080 kbps, 25 fps
Аудио: [Russian] 2 ch, 48 kHz, 128 kbps - [DUB]
GeneralComplete name : J:\Torrents\Chelovek v zelenom kimono.1991.TVRip.XVID.640x.rip by Frost O.S.mp4Format : MPEG-4Codec ID : M4VFile size : 577 MiBDuration : 1h 6mnOverall bit rate mode : VariableOverall bit rate : 1 215 KbpsMovie name : Chelovek v zelenom kimono.1991.TVRip.XVID.640xGenre : ActionContentType : Short FilmEncoded date : UTC 2015-03-02 14:15:26Tagged date : UTC 2015-03-02 14:17:19Writing application : MkvToMp4 version: 0.224 (x64)Copyright : rip by Frost O.SCover : YesContentRating : ru-movie|12+|200|

VideoID : 1Format : MPEG-4 VisualFormat profile : Advanced [email protected] settings, BVOP : YesFormat settings, QPel : NoFormat settings, GMC : No warppointsFormat settings, Matrix : CustomCodec ID : 20Duration : 1h 6mnBit rate mode : VariableBit rate : 1 079 KbpsMaximum bit rate : 3 716 KbpsWidth : 464 pixelsHeight : 360 pixelsDisplay aspect ratio : 1.289Frame rate mode : ConstantFrame rate : 25.000 fpsColor space : YUVChroma subsampling : 4:2:0Bit depth : 8 bitsScan type : ProgressiveCompression mode : LossyBits/(Pixel*Frame) : 0.258Stream size : 513 MiB (89%)Writing library : XviD 1.2.1 (UTC 2008-12-04)Language : EnglishTagged date : UTC 2015-03-02 14:16:13

AudioID : 2Format : AACFormat/Info : Advanced Audio CodecFormat profile : LCCodec ID : 40Duration : 1h 6mnBit rate mode : VariableBit rate : 128 KbpsMaximum bit rate : 132 KbpsChannel(s) : 2 channelsChannel positions : Front: L RSampling rate : 48.0 KHzCompression mode : LossyStream size : 60.8 MiB (11%)Language : RussianEncoded date : UTC 2015-03-02 14:16:06Tagged date : UTC 2015-03-02 14:16:13


Трекер:  [ 02-Мар-2015 20:00 ]

  

Скачать .torrent

Размер .torrent файла 11 KB


Размер: 577 MB
Хэш (hash) релиза: 5a8559f3856ed4e0563f637b949333895b9afc9b

Еще никто не оставлял запись к записи скачать торрент [VIDEO] Человек в зеленом кимоно . Будь первым!

!Обратная связь