Gorgon City
Tari Tari

Скачать через торрент [MC] Tiesto in Concert - Arnhem Gelredome бесплатно русская версия torrent активатор

Статистика раздачи
Размер:  1005 MB   |    Зарегистрирован:  3 года 1 месяц   |    .torrent скачан:  42 раза   |   
Раздают:  1  
   
загрузка...
 
Автор Сообщение

Galfimbul

avatar Galfimbul




Исполнитель: Tiesto in Concert - Arnhem Gelredome
Год выпуска: 2004
Страна: Нидерланды
Жанр: Trance
Продолжительность: 03:03:46, 00:29:29
Трэклист:
01. Tiesto – Forever Today
02. Tiesto – Olympic Flame
03. Fred Baker vs Nyram – Confirmation
04. Fred Baker – Total Blackout
05. Tiesto – Breda 8PM (DJ Montana Edit)
06. Thomas Datt – 2V2 (Robert Nickson Mix)
07. DJ Ernesto – Stop 9.5 (Phynn salvation Mix)
08. Primer – Everlast (Original Mix)
09. Ridgewalkers – Find (Andy Moor Mix)
10. Tiesto featuring DJ Mason – Euphoria
11. Whirlpool & Octagen – Alaska
12. Electro Voya – Effervesce
13. Tiesto featuring Matt Hales from Aqualung – UR
14. Allure – Eastern Magik
15. Phynn – Lucid
16. Rob Rolefes – Mel Percuetek
17. Tiesto featuring BT – Love Comes Again (Original 12” Version)
18. DJ Danjo & Rob Styles – Duende (original mix)
19. Rank 1 – Beatz At Rank-1 Dotcom
20. Children of Orpheus – Open your heart
21. DJ Tiesto featuring Children of Orpheus – Suburban train
22. DJ Tiesto featuring Kirsty Hawkshaw – Just Be (Antillas Club Mix)
23. DJ Tiesto – Adagio For Strings
24. DJ Tiesto featuring DJ Mason – Lethal Industry (Tiesto Edit)
25. DJ Tiesto – Magikal Circus
26. DJ Tiesto – Goldrush (DJ Montana Remix)
27. DJ Tiesto – Traffic (DJ Montana Edit)
28. Passive Resistance – Praiseworthy Tunes (Hoipolloi Mix)
29. Jesselyn – Omnia (Tech-trance Mix)
30. Dark Alliance – Vibration
31. Delerium featuring Sarah McLachlan – Silence (DJ Tiesto’s In Search Of Sunrise Remix)

Содержит:

1) Behind The Red Curtain
Интервью с DJ Tiesto о последних годах его работы и о создании у проведении данного концерта, а также всех людей, кто помогал ему в этом.

2) Franz Hazary presents Tiësto's Disappearing Act.
Фокус с исчезновением диджея на глазах у всей публики..

3) Bang The Drums
Хорошая игра барабанщиков, которые относились к оркестры концерта

4) Matt Hales for Auqalang - Easier To Lie.
Неплохая композиция в исполнении одного из солистов, который участвовал в концерте.

5) 12 days in 3 Minutes.

Запись камеры за все двенадцать дней подготовки и проведения концерта - очень даже интересно. Сопровождается хорошей музыкой.

6) Visual Magik by Studio Micha Klein.

Обалденный клип с красивыми эффектами! Рекомендую!!

7) The Number 1 DJ In The World

Церемония вручения награды лучшего диджея от английского журнала DJ Mag

Доп. информация:Рип сделан с копии оригинальных дисков
Качество: DVDRip / [url=...85411]DVD9 (Disc 1)[/url] / [url=...120720]DVD5 (Disc 2)[/url] Релиз группы Формат: MP4
Видео кодек: XVID 1.2.1
Аудио кодек: AAC
Видео: 480x272 AR:16/9 512 kbps, 25 fps
Аудио: 2 ch, 48 kHz, 128 kbps
GeneralComplete name : J:\Torrents\DJ Tiesto in Concert 2004.DVDRip.XVID.480x\DJ Tiesto in Concert 2004.DVDRip.XVID.480x.DISK1.rip by Frost O.S.mp4Format : MPEG-4Format profile : Base Media / Version 2Codec ID : mp42File size : 869 MiBDuration : 3h 3mnOverall bit rate mode : VariableOverall bit rate : 661 KbpsEncoded date : UTC 2015-03-01 11:01:04Tagged date : UTC 2015-03-01 11:01:04

VideoID : 201Format : MPEG-4 VisualFormat profile : Advanced [email protected] settings, BVOP : YesFormat settings, QPel : NoFormat settings, GMC : No warppointsFormat settings, Matrix : CustomCodec ID : 20Duration : 3h 3mnBit rate mode : VariableBit rate : 530 KbpsMaximum bit rate : 2 992 KbpsWidth : 480 pixelsHeight : 272 pixelsDisplay aspect ratio : 16:9Frame rate mode : ConstantFrame rate : 25.000 fpsColor space : YUVChroma subsampling : 4:2:0Bit depth : 8 bitsScan type : ProgressiveCompression mode : LossyBits/(Pixel*Frame) : 0.162Stream size : 696 MiB (80%)Writing library : XviD 1.2.1 (UTC 2008-12-04)Encoded date : UTC 2015-03-01 11:01:04Tagged date : UTC 2015-03-01 11:02:49

AudioID : 101Format : AACFormat/Info : Advanced Audio CodecFormat profile : LCCodec ID : 40Duration : 3h 3mnBit rate mode : VariableBit rate : 128 KbpsMaximum bit rate : 141 KbpsChannel(s) : 2 channelsChannel positions : Front: L RSampling rate : 48.0 KHzCompression mode : LossyStream size : 168 MiB (19%)Encoded date : UTC 2015-03-01 11:02:35Tagged date : UTC 2015-03-01 11:02:49
GeneralComplete name : J:\Torrents\DJ Tiesto in Concert 2004.DVDRip.XVID.480x\DJ Tiesto in Concert 2004.DVDRip.XVID.480x.DISK2.rip by Frost O.S.mp4Format : MPEG-4Format profile : Base Media / Version 2Codec ID : mp42File size : 136 MiBDuration : 29mn 29sOverall bit rate mode : VariableOverall bit rate : 645 KbpsEncoded date : UTC 2015-03-01 09:22:03Tagged date : UTC 2015-03-01 09:22:03

VideoID : 201Format : MPEG-4 VisualFormat profile : Advanced [email protected] settings, BVOP : YesFormat settings, QPel : NoFormat settings, GMC : No warppointsFormat settings, Matrix : CustomCodec ID : 20Duration : 29mn 29sBit rate mode : VariableBit rate : 513 KbpsMaximum bit rate : 1 947 KbpsWidth : 480 pixelsHeight : 272 pixelsDisplay aspect ratio : 16:9Frame rate mode : ConstantFrame rate : 25.000 fpsColor space : YUVChroma subsampling : 4:2:0Bit depth : 8 bitsScan type : ProgressiveCompression mode : LossyBits/(Pixel*Frame) : 0.157Stream size : 108 MiB (80%)Writing library : XviD 1.2.1 (UTC 2008-12-04)Encoded date : UTC 2015-03-01 09:22:03Tagged date : UTC 2015-03-01 09:22:20

AudioID : 101Format : AACFormat/Info : Advanced Audio CodecFormat profile : LCCodec ID : 40Duration : 29mn 29sBit rate mode : VariableBit rate : 128 KbpsMaximum bit rate : 201 KbpsChannel(s) : 2 channelsChannel positions : Front: L RSampling rate : 48.0 KHzCompression mode : LossyStream size : 27.0 MiB (20%)Encoded date : UTC 2015-03-01 09:22:19Tagged date : UTC 2015-03-01 09:22:20


Трекер:  [ 01-Мар-2015 16:30 ]

  

Скачать .torrent

Размер .torrent файла 20 KB


Размер: 1005 MB
Хэш (hash) релиза: 555503358e86c21b5d4bacc8aae1709cddef8f13

Еще никто не оставлял запись к записи скачать торрент [MC] Tiesto in Concert - Arnhem Gelredome . Будь первым!

!Обратная связь