Basada en hechos reales | Siming Yang | Smultron 10.1.2 macOS

Скачать через торрент [SERIAL] Верни мою любовь Серии: 1-24 из 24 бесплатно русская версия torrent активатор

Статистика раздачи
Размер:  4.7 GB   |    Зарегистрирован:  3 года 4 месяца   |    .torrent скачан:  72 раза   |   
Раздают:  1  
   
загрузка...
 
Автор Сообщение

Galfimbul

avatar Galfimbul


Верни мою любовь
Год выпуска: 2014
Страна: Россия, Украина
Жанр: Мелодрама
Продолжительность: 24 x ~00:50:00
Режиссер: Евгений Баранов (II)
В ролях: Олеся Фаттахова, Станислав Бондаренко, Дмитрий Пчела, Настасья Самбурская, Владимир Литвинов, Наталия Васько, Юрий Лахин, Елена Борисова, Алёна Яковлева, Мария Тарасова (II), Любава Грешнова, Анатолий Лобоцкий, Борис Каморзин, Оксана Дорохина, Анатолий Зиновенко, Инна Мирошниченко, Александр Хващинский, Александр Форманчук, Михаил Сафронов (II), Светлана Зельбет, Павел Пискун, Сусанна Назаренко
Описание: Юная и немного наивная виолончелистка Вера почти одновременно знакомится с двумя совершенно разными мужчинами: художником Владом и бизнесменом Антоном. Добродушный разгильдяй Влад - сын и наследник олигарха Сергея Орлова, на которого Влад с детства зол из-за того, что тот бросил его мать. Но, главное, Влад винит отца в самоубийстве своей любимой девушки Алены. Амбициозный и расчетливый Антон - зять того же Орлова, работает в компании тестя и надеется возглавить ее.
Качество: HDTVRip
Формат: MP4
Видео: AVC, 480x272 (16/9), 25.000 fps, 439 Kbps (0.134 bit/pixel)
Аудио: AAC LC, 48.0 KHz, 2 ch, 128 Kbps, CBR

GeneralComplete name : D:\...\Верни.мою.любовь.10.2014.HDTVRip.mp4Format : MPEG-4Format profile : Base MediaCodec ID : isomFile size : 200 MiBDuration : 49mn 19sOverall bit rate : 567 KbpsEncoded date : UTC 2015-02-12 13:21:12Tagged date : UTC 2015-02-12 13:21:12Writing application : Lavf56.19.100Comment : by aleksd72

VideoID : 1Format : AVCFormat/Info : Advanced Video CodecFormat profile : [email protected] settings, CABAC : NoFormat settings, ReFrames : 1 frameCodec ID : avc1Codec ID/Info : Advanced Video CodingDuration : 49mn 19sBit rate : 439 KbpsWidth : 480 pixelsHeight : 272 pixelsDisplay aspect ratio : 16:9Original display aspect rat : 16:9Frame rate mode : ConstantFrame rate : 25.000 fpsStandard : ComponentColor space : YUVChroma subsampling : 4:2:0Bit depth : 8 bitsScan type : ProgressiveBits/(Pixel*Frame) : 0.134Stream size : 153 MiB (77%)Writing library : x264 core 144 r2525Encoding settings : cabac=0 / ref=1 / deblock=1:0:0 / analyse=0x1:0x110 / me=umh / subme=5 / psy=1 / psy_rd=1.00:0.00 / mixed_ref=0 / me_range=12 / chroma_me=1 / trellis=0 / 8x8dct=0 / cqm=0 / deadzone=21,11 / fast_pskip=1 / chroma_qp_offset=0 / threads=3 / lookahead_threads=1 / sliced_threads=0 / nr=0 / decimate=1 / interlaced=0 / bluray_compat=0 / constrained_intra=0 / bframes=0 / weightp=0 / keyint=250 / keyint_min=25 / scenecut=40 / intra_refresh=0 / rc_lookahead=40 / rc=abr / mbtree=0 / bitrate=439 / ratetol=1.0 / qcomp=0.60 / qpmin=8 / qpmax=69 / qpstep=4 / vbv_maxrate=3500 / vbv_bufsize=3500 / nal_hrd=none / filler=0 / ip_ratio=1.40 / aq=1:1.00Encoded date : UTC 2015-02-12 13:21:12Tagged date : UTC 2015-02-12 13:21:12Color range : Limited

AudioID : 2Format : AACFormat/Info : Advanced Audio CodecFormat profile : LCCodec ID : 40Duration : 49mn 19sBit rate mode : ConstantBit rate : 128 KbpsChannel(s) : 2 channelsChannel positions : Front: L RSampling rate : 48.0 KHzCompression mode : LossyStream size : 45.1 MiB (23%)Encoded date : UTC 2015-02-12 13:21:12Tagged date : UTC 2015-02-12 13:21:12


Трекер:  [ 01-Мар-2015 14:00 ]

  

Скачать .torrent

Размер .torrent файла 14 KB


Размер: 4.7 GB
Хэш (hash) релиза: 45c33959d1dd7257d73a2d6de21ec3e574d01ece

Еще никто не оставлял запись к записи скачать торрент [SERIAL] Верни мою любовь Серии: 1-24 из 24 . Будь первым!

!Обратная связь