chapter 85 | Miss Korea | Империя Мертвецов / Shisha no Teikoku / The Empire of Corpses (2015) BDRip 720p | AniDub, AniChaos

Скачать через торрент [VIDEO] Игрушка Le jouet бесплатно русская версия torrent активатор

Статистика раздачи
Размер:  1.4 GB   |    Зарегистрирован:  3 года 4 месяца   |    .torrent скачан:  43 раза   |   
Раздают:  1  
   
загрузка...
 
Автор Сообщение

Galfimbul

avatar Galfimbul


Игрушка / Le jouet

Год выпуска: 1976
Страна: Францыя
Жанр: комедия
Продолжительность: 01:33:53
Перевод №1: Профессиональный (дублированный) | Советский дубляж
Перевод №2: Профессиональный (многоголосый, закадровый) | CP-Digital
Перевод №3: Профессиональный (многоголосый, закадровый) | ОРТ
Cубтитры: нет
Режиссер: Франсис Вебер / Francis Veber
В ролях : Пьер Ришар / Pierre Richard, Мишель Буке / Michel Bouquet, Фабрис Греко / Fabrice Greco, Жак Франсуа / Jacques François, Даниэль Секкальди / Daniel Ceccaldi, Шарль Жерар / Charles Gérard, Мишель Омон / Michel Aumont, Сьюзи Дайсон / Suzy Dyson, Жерар Жюньо / Gérard Jugnot, Мишель Робен / Michel Robin, Мишель Сэнд / Michèle Sand, Аликс Махье / Alix Mahieux и другие .
Описание: [i]Стать игрушкой для малолетнего миллионера — ситуация не для слабонервных. Герой Пьера Ришара отлично справляется с ролью ужасного ребенка и, вместе с подопечным, отрывается на полную катушку.
[b]Доп. информация
:
Релиз группы
К моменту съемок в «Игрушке» Фабрису Греко исполнилось 10 лет. В фильм он попал совершенно случайно, поскольку был сыном знакомого одного из членов съемочной группы, и это была его единственная роль.

Качество: HDRip / [url=...66930502#66930502]BDRip 720p[/url]
Формат: MP4
Видео кодек: H.264
Аудио кодек: AAC
Видео: 896x536 AR:1.672 1740 kbps, 23.976 fps
Аудио №1: [Russian] 2 ch, 48 kHz, 128 kbps - [DUB]
Аудио №2: [Russian] 2 ch, 48 kHz, 128 kbps - [MVO]
Аудио №3: [Russian] 2 ch, 48 kHz, 128 kbps - [MVO]
...last pass...

x264.exe: --pass 2 --bitrate 1740 --preset medium --profile high --level 4.1 --ref 8 --deblock -2:-2 --merange 24 --no-chroma-me --direct auto --b-adapt 2 --trellis 2 --no-fast-pskip --no-dct-decimate --psy-rd 1.00:0.10 --subme 9 --me umh --colorprim bt709 --transfer bt709 --colormatrix bt709 --sar 1:1 --stats "J:\The.Toy.1976.HDRip.x264.960x.rip by Frost O.S.log" --output "J:\The.Toy.1976.HDRip.x264.960x.rip by Frost O.S.mp4" "J:\Temp\0011.avs"

avs [info]: 896x536p 1:1 @ 2500000/104271 fps (cfr)
x264 [info]: using SAR=1/1
x264 [info]: using cpu capabilities: MMX2 SSE2Fast SSSE3 SSE4.2 LZCNT
x264 [info]: profile High, level 4.1

x264 [info]: frame I:1141 Avg QP:18.47 size: 76881
x264 [info]: frame P:36944 Avg QP:21.26 size: 20242
x264 [info]: frame B:96990 Avg QP:23.80 size: 4019
x264 [info]: consecutive B-frames: 1.6% 3.4% 13.4% 81.5%
x264 [info]: mb I I16..4: 5.1% 74.2% 20.6%
x264 [info]: mb P I16..4: 0.6% 4.6% 1.0% P16..4: 48.2% 25.4% 16.2% 0.0% 0.0% skip: 3.9%
x264 [info]: mb B I16..4: 0.0% 0.3% 0.1% B16..8: 42.4% 6.6% 1.7% direct: 2.8% skip:46.1% L0:39.2% L1:51.9% BI: 8.9%
x264 [info]: 8x8 transform intra:74.5% inter:60.4%
x264 [info]: direct mvs spatial:97.3% temporal:2.7%
x264 [info]: coded y,uvDC,uvAC intra: 89.9% 82.5% 53.4% inter: 22.2% 21.4% 6.3%
x264 [info]: i16 v,h,dc,p: 50% 16% 10% 24%
x264 [info]: i8 v,h,dc,ddl,ddr,vr,hd,vl,hu: 15% 8% 5% 9% 14% 14% 13% 11% 11%
x264 [info]: i4 v,h,dc,ddl,ddr,vr,hd,vl,hu: 14% 8% 3% 9% 15% 15% 13% 12% 12%
x264 [info]: i8c dc,h,v,p: 37% 22% 25% 16%
x264 [info]: Weighted P-Frames: Y:1.2% UV:0.2%
x264 [info]: ref P L0: 46.7% 13.7% 19.0% 5.1% 5.5% 3.5% 4.1% 2.1% 0.4% 0.0%
x264 [info]: ref B L0: 81.2% 9.3% 4.1% 2.1% 1.6% 1.1% 0.6%
x264 [info]: ref B L1: 95.7% 4.3%
x264 [info]: kb/s:1740.03
encoded 135075 frames, 12.14 fps, 1740.03 kb/s
GeneralComplete name : J:\Torrents\The.Toy.1976.HDRip.x264.960x.rip by Frost O.S.mp4Format : MPEG-4Codec ID : M4VFile size : 1.40 GiBDuration : 1h 33mnOverall bit rate mode : VariableOverall bit rate : 2 139 KbpsMovie name : The Toy 1976 HDRip x264 960x rip by Frost O SPerformer : Pierre RichardGenre : ComedyContentType : Short FilmEncoded date : UTC 2015-02-20 13:32:46Tagged date : UTC 2015-02-20 13:35:56Writing application : MkvToMp4 version: 0.224 (x64)Comment : rip by Frost O.SContentRating : ru-movie|12+|200|iTunMOVI : <?xml version="1.0" encoding="UTF-8"?> / <!DOCTYPE plist PUBLIC "-//Apple//DTD PLIST 1.0//EN" "http://www.apple.com/DTDs/PropertyList-1.0.dtd"> / <plist version="1.0"> / <dict> / <key>directors</key> / <array> / <dict> / <key>name</key> / <string>Francis Veber</string> / </dict> / </array> / </dict> / </plist>

VideoID : 1Format : AVCFormat/Info : Advanced Video CodecFormat profile : [email protected] settings, CABAC : YesFormat settings, ReFrames : 8 framesCodec ID : avc1Codec ID/Info : Advanced Video CodingDuration : 1h 33mnBit rate : 1 740 KbpsMaximum bit rate : 6 962 KbpsWidth : 896 pixelsHeight : 536 pixelsDisplay aspect ratio : 1.672Frame rate mode : ConstantFrame rate : 23.976 fpsColor space : YUVChroma subsampling : 4:2:0Bit depth : 8 bitsScan type : ProgressiveBits/(Pixel*Frame) : 0.151Stream size : 1.14 GiB (81%)Writing library : x264 core 130 r2273 b3065e6Encoding settings : cabac=1 / ref=8 / deblock=1:-2:-2 / analyse=0x3:0x113 / me=umh / subme=9 / psy=1 / psy_rd=1.00:0.10 / mixed_ref=1 / me_range=24 / chroma_me=0 / trellis=2 / 8x8dct=1 / cqm=0 / deadzone=21,11 / fast_pskip=0 / chroma_qp_offset=-3 / threads=3 / lookahead_threads=1 / sliced_threads=0 / nr=0 / decimate=0 / interlaced=0 / bluray_compat=0 / constrained_intra=0 / bframes=3 / b_pyramid=2 / b_adapt=2 / b_bias=0 / direct=3 / weightb=1 / open_gop=0 / weightp=2 / keyint=250 / keyint_min=23 / scenecut=40 / intra_refresh=0 / rc_lookahead=40 / rc=2pass / mbtree=1 / bitrate=1740 / ratetol=1.0 / qcomp=0.60 / qpmin=0 / qpmax=69 / qpstep=4 / cplxblur=20.0 / qblur=0.5 / ip_ratio=1.40 / aq=1:1.00Language : EnglishEncoded date : UTC 2015-02-20 13:32:46Tagged date : UTC 2015-02-20 13:33:32Color primaries : BT.709Transfer characteristics : BT.709Matrix coefficients : BT.709

Audio #1ID : 2Format : AACFormat/Info : Advanced Audio CodecFormat profile : LCCodec ID : 40Duration : 1h 33mnBit rate mode : VariableBit rate : 128 KbpsMaximum bit rate : 133 KbpsChannel(s) : 2 channelsChannel positions : Front: L RSampling rate : 48.0 KHzCompression mode : LossyStream size : 86.0 MiB (6%)Title : [Dub] Sovetskyu DublyazhLanguage : RussianEncoded date : UTC 2015-02-20 13:33:21Tagged date : UTC 2015-02-20 13:33:32

Audio #2ID : 3Format : AACFormat/Info : Advanced Audio CodecFormat profile : LCCodec ID : 40Duration : 1h 33mnBit rate mode : VariableBit rate : 128 KbpsMaximum bit rate : 132 KbpsChannel(s) : 2 channelsChannel positions : Front: L RSampling rate : 48.0 KHzCompression mode : LossyStream size : 85.7 MiB (6%)Title : [MVO] CP_DigitalLanguage : RussianEncoded date : UTC 2015-02-20 13:33:24Tagged date : UTC 2015-02-20 13:33:32

Audio #3ID : 4Format : AACFormat/Info : Advanced Audio CodecFormat profile : LCCodec ID : 40Duration : 1h 33mnBit rate mode : VariableBit rate : 128 KbpsMaximum bit rate : 132 KbpsChannel(s) : 2 channelsChannel positions : Front: L RSampling rate : 48.0 KHzCompression mode : LossyStream size : 85.7 MiB (6%)Title : [MVO] OPTLanguage : RussianEncoded date : UTC 2015-02-20 13:33:29Tagged date : UTC 2015-02-20 13:33:32


Трекер:  [ 01-Мар-2015 14:00 ]

  

Скачать .torrent

Размер .torrent файла 14 KB


Размер: 1.4 GB
Хэш (hash) релиза: e49af19c6a58e65e2777e1ce01d4184e90a1fbb9

Еще никто не оставлял запись к записи скачать торрент [VIDEO] Игрушка Le jouet . Будь первым!

!Обратная связь