Nat Geo Wild: Змеи в городе / Snakes in the city [01-10] (2017) HDTVRip | P1 | http://manyoneportal.org/index.php?do=feedback | Hawaii Five-0 7.Sezon izle

Скачать через торрент [MULT] Мойдодыр бесплатно русская версия torrent активатор

Статистика раздачи
Размер:  91 MB   |    Зарегистрирован:  3 года 4 месяца   |    .torrent скачан:  49 раз   |   
Раздают:  1  
   
загрузка...
 
Автор Сообщение

Galfimbul

avatar Galfimbul


Мойдодыр

Год выпуска: 1939
Страна: СССР
Производство: ФГУП "Киностудия "Союзмультфильм"
Жанр: мультфильм, короткометражка
Продолжительность: 00:10:24
Перевод: Не требуется
Cубтитры: нет
Режиссер: Иван Иванов-Вано
Роли озвучивали: Леонид Пирогов, Осип Абдулов, Юлия Юльская
Описание: Экранизация известной одноименной сказки К. Чуковского о мальчике-грязнуле, который не любил умываться. Поэтому от него убежали все вещи. Мойдодыр заставил Мочалку и Мыло насильно вымыть неряху.
Доп. информация:

Доп. информация: Издание без реставрацииКачество: DVDRip / [url=...3043902]DVD5 лицензионное издание "СОЮЗ-видео"[/url]
Формат: MP4
Видео кодек: H.264
Аудио кодек: AAC
Видео: 464x360 AR:1.289 1080 kbps, 25 fps
Аудио: 2 ch, 48 kHz, 128 kbps
...last pass...

x264.exe: --pass 2 --bitrate 1080 --preset medium --profile high --level 4.1 --ref 8 --deblock 1:1 --merange 24 --no-chroma-me --direct auto --b-adapt 2 --trellis 2 --no-fast-pskip --no-dct-decimate --psy-rd 1.00:0.10 --partitions all --subme 9 --me umh --colorprim bt470bg --transfer bt470bg --colormatrix bt470bg --sar 1:1 --stats "J:\DC\Moidodur.log" --output "J:\DC\Moidodur.mp4" "J:\Temp\0016.avs"

avs [info]: 464x360p 1:1 @ 25/1 fps (cfr)
x264 [info]: using SAR=1/1
x264 [info]: using cpu capabilities: MMX2 SSE2Fast SSSE3 SSE4.2 LZCNT
x264 [info]: profile High, level 4.1

x264 [info]: frame I:89 Avg QP:26.51 size: 14005
x264 [info]: frame P:5105 Avg QP:29.10 size: 6939
x264 [info]: frame B:10423 Avg QP:29.82 size: 4576
x264 [info]: consecutive B-frames: 3.0% 9.1% 44.7% 43.2%
x264 [info]: mb I I16..4: 2.8% 90.9% 6.2%
x264 [info]: mb P I16..4: 0.9% 22.6% 0.6% P16..4: 49.8% 16.4% 9.0% 0.1% 0.0% skip: 0.5%
x264 [info]: mb B I16..4: 0.1% 5.9% 0.1% B16..8: 48.3% 14.4% 2.5% direct:13.4% skip:15.4% L0:51.8% L1:45.2% BI: 3.0%
x264 [info]: 8x8 transform intra:94.5% inter:80.5%
x264 [info]: direct mvs spatial:93.6% temporal:6.4%
x264 [info]: coded y,uvDC,uvAC intra: 93.5% 26.6% 1.6% inter: 51.2% 19.4% 0.3%
x264 [info]: i16 v,h,dc,p: 32% 28% 25% 15%
x264 [info]: i8 v,h,dc,ddl,ddr,vr,hd,vl,hu: 10% 3% 3% 14% 19% 15% 16% 11% 10%
x264 [info]: i4 v,h,dc,ddl,ddr,vr,hd,vl,hu: 9% 6% 2% 10% 16% 15% 16% 12% 14%
x264 [info]: i8c dc,h,v,p: 53% 33% 10% 4%
x264 [info]: Weighted P-Frames: Y:68.1% UV:18.2%
x264 [info]: ref P L0: 39.0% 12.3% 13.4% 9.2% 6.8% 5.9% 5.2% 3.8% 3.2% 1.2%
x264 [info]: ref B L0: 51.6% 18.9% 11.4% 6.6% 5.3% 4.2% 2.0%
x264 [info]: ref B L1: 88.0% 12.0%
x264 [info]: kb/s:1080.48
encoded 15617 frames, 14.44 fps, 1080.49 kb/s
GeneralComplete name : J:\Torrents\Moidodur.1939.DVDRip.x264.640x.rip by Frost O.S.mp4Format : MPEG-4Codec ID : M4VFile size : 90.7 MiBDuration : 10mn 24sOverall bit rate mode : VariableOverall bit rate : 1 218 KbpsMovie name : MoidodurContentType : Short FilmEncoded date : UTC 2015-02-25 10:57:30Tagged date : UTC 2015-02-25 10:57:34Writing application : MkvToMp4 version: 0.224 (x64)Cover : Yes

VideoID : 1Format : AVCFormat/Info : Advanced Video CodecFormat profile : [email protected] settings, CABAC : YesFormat settings, ReFrames : 8 framesCodec ID : avc1Codec ID/Info : Advanced Video CodingDuration : 10mn 24sBit rate : 1 080 KbpsMaximum bit rate : 1 625 KbpsWidth : 464 pixelsHeight : 360 pixelsDisplay aspect ratio : 1.289Frame rate mode : ConstantFrame rate : 25.000 fpsColor space : YUVChroma subsampling : 4:2:0Bit depth : 8 bitsScan type : ProgressiveBits/(Pixel*Frame) : 0.259Stream size : 80.5 MiB (89%)Writing library : x264 core 130 r2273 b3065e6Encoding settings : cabac=1 / ref=8 / deblock=1:1:1 / analyse=0x3:0x133 / me=umh / subme=9 / psy=1 / psy_rd=1.00:0.10 / mixed_ref=1 / me_range=24 / chroma_me=0 / trellis=2 / 8x8dct=1 / cqm=0 / deadzone=21,11 / fast_pskip=0 / chroma_qp_offset=-3 / threads=3 / lookahead_threads=1 / sliced_threads=0 / nr=0 / decimate=0 / interlaced=0 / bluray_compat=0 / constrained_intra=0 / bframes=3 / b_pyramid=2 / b_adapt=2 / b_bias=0 / direct=3 / weightb=1 / open_gop=0 / weightp=2 / keyint=250 / keyint_min=25 / scenecut=40 / intra_refresh=0 / rc_lookahead=40 / rc=2pass / mbtree=1 / bitrate=1080 / ratetol=1.0 / qcomp=0.60 / qpmin=0 / qpmax=69 / qpstep=4 / cplxblur=20.0 / qblur=0.5 / ip_ratio=1.40 / aq=1:1.00Language : EnglishEncoded date : UTC 2015-02-25 10:57:30Tagged date : UTC 2015-02-25 10:57:32Color primaries : BT.601 PALTransfer characteristics : BT.470 System B, BT.470 System GMatrix coefficients : BT.601

AudioID : 2Format : AACFormat/Info : Advanced Audio CodecFormat profile : LCCodec ID : 40Duration : 10mn 24sBit rate mode : VariableBit rate : 128 KbpsMaximum bit rate : 131 KbpsChannel(s) : 2 channelsChannel positions : Front: L RSampling rate : 48.0 KHzCompression mode : LossyStream size : 9.52 MiB (11%)Language : RussianEncoded date : UTC 2015-02-25 10:57:31Tagged date : UTC 2015-02-25 10:57:32


Трекер:  [ 25-Фев-2015 18:00 ]

  

Скачать .torrent

Размер .torrent файла 14 KB


Размер: 91 MB
Хэш (hash) релиза: 3d996afa5d91f457557d3e25db9d0ea45cfd5e81

Еще никто не оставлял запись к записи скачать торрент [MULT] Мойдодыр . Будь первым!

!Обратная связь