Promo Dj's | डाउनलोड APK | Scarica APK

Скачать через торрент [MULT] Бармалей бесплатно русская версия torrent активатор

Статистика раздачи
Размер:  135 MB   |    Зарегистрирован:  3 года 4 месяца   |    .torrent скачан:  32 раза   |   
Раздают:  1  
   
загрузка...
 
Автор Сообщение

Galfimbul

avatar Galfimbul


Бармалей

Год выпуска: 1941
Страна: СССР
Производство: ФГУП "Киностудия "Союзмультфильм"
Жанр: мультфильм, короткометражка
Продолжительность: 00:15:29
Перевод: Не требуется
Cубтитры: нет
Режиссеры: Владимир Полковников, Леонид Амальрик
Описание: По мотивам сказок К. Чуковского о злом Бармалее, который хозяйничал в Африке и добром докторе Айболите.
Доп. информация:

Доп. информация: Издание без реставрацииКачество: DVDRip / [url=...3043902]DVD5 лицензионное издание "СОЮЗ-видео"[/url]
Формат: MP4
Видео кодек: H.264
Аудио кодек: AAC
Видео: 464x360 AR:1.289 1080 kbps, 25 fps
Аудио: 2 ch, 48 kHz, 128 kbps
...last pass...

x264.exe: --pass 2 --bitrate 1080 --preset medium --profile high --level 4.1 --ref 8 --deblock 1:1 --merange 24 --no-chroma-me --direct auto --b-adapt 2 --trellis 2 --no-fast-pskip --no-dct-decimate --psy-rd 1.00:0.10 --partitions all --subme 9 --me umh --colorprim bt470bg --transfer bt470bg --colormatrix bt470bg --sar 1:1 --stats "J:\DC\Barmaley.log" --output "J:\DC\Barmaley.mp4" "J:\Temp\0017.avs"

avs [info]: 464x360p 1:1 @ 25/1 fps (cfr)
x264 [info]: using SAR=1/1
x264 [info]: using cpu capabilities: MMX2 SSE2Fast SSSE3 SSE4.2 LZCNT
x264 [info]: profile High, level 4.1

x264 [info]: frame I:159 Avg QP:22.46 size: 17378
x264 [info]: frame P:6828 Avg QP:25.23 size: 8456
x264 [info]: frame B:16260 Avg QP:26.96 size: 4002
x264 [info]: consecutive B-frames: 1.7% 7.9% 21.7% 68.7%
x264 [info]: mb I I16..4: 3.8% 83.1% 13.2%
x264 [info]: mb P I16..4: 1.1% 16.2% 1.6% P16..4: 47.6% 20.4% 11.5% 0.4% 0.1% skip: 1.0%
x264 [info]: mb B I16..4: 0.1% 2.1% 0.3% B16..8: 44.7% 14.0% 3.9% direct: 9.1% skip:25.8% L0:47.7% L1:45.7% BI: 6.7%
x264 [info]: 8x8 transform intra:85.1% inter:70.9%
x264 [info]: direct mvs spatial:97.0% temporal:3.0%
x264 [info]: coded y,uvDC,uvAC intra: 90.7% 19.4% 0.4% inter: 40.0% 7.5% 0.1%
x264 [info]: i16 v,h,dc,p: 22% 25% 20% 33%
x264 [info]: i8 v,h,dc,ddl,ddr,vr,hd,vl,hu: 9% 6% 6% 10% 17% 12% 17% 9% 14%
x264 [info]: i4 v,h,dc,ddl,ddr,vr,hd,vl,hu: 7% 6% 3% 10% 16% 13% 16% 12% 16%
x264 [info]: i8c dc,h,v,p: 65% 26% 8% 1%
x264 [info]: Weighted P-Frames: Y:44.8% UV:0.2%
x264 [info]: ref P L0: 37.7% 11.2% 16.5% 9.3% 7.2% 6.3% 5.6% 3.8% 2.2% 0.4%
x264 [info]: ref B L0: 67.3% 14.4% 7.0% 4.2% 3.2% 2.6% 1.4%
x264 [info]: ref B L1: 93.8% 6.2%
x264 [info]: kb/s:1080.41
encoded 23247 frames, 17.66 fps, 1080.41 kb/s
GeneralComplete name : J:\Torrents\Barmaley.1941.DVDRip.x264.640x.rip by Frost O.S.mp4Format : MPEG-4Codec ID : M4VFile size : 135 MiBDuration : 15mn 29sOverall bit rate mode : VariableOverall bit rate : 1 217 KbpsMovie name : BarmaleyContentType : Short FilmEncoded date : UTC 2015-02-25 11:46:12Tagged date : UTC 2015-02-25 11:46:15Writing application : MkvToMp4 version: 0.224 (x64)Cover : Yes

VideoID : 1Format : AVCFormat/Info : Advanced Video CodecFormat profile : [email protected] settings, CABAC : YesFormat settings, ReFrames : 8 framesCodec ID : avc1Codec ID/Info : Advanced Video CodingDuration : 15mn 29sBit rate : 1 080 KbpsMaximum bit rate : 2 185 KbpsWidth : 464 pixelsHeight : 360 pixelsDisplay aspect ratio : 1.289Frame rate mode : ConstantFrame rate : 25.000 fpsColor space : YUVChroma subsampling : 4:2:0Bit depth : 8 bitsScan type : ProgressiveBits/(Pixel*Frame) : 0.259Stream size : 120 MiB (89%)Writing library : x264 core 130 r2273 b3065e6Encoding settings : cabac=1 / ref=8 / deblock=1:1:1 / analyse=0x3:0x133 / me=umh / subme=9 / psy=1 / psy_rd=1.00:0.10 / mixed_ref=1 / me_range=24 / chroma_me=0 / trellis=2 / 8x8dct=1 / cqm=0 / deadzone=21,11 / fast_pskip=0 / chroma_qp_offset=-3 / threads=3 / lookahead_threads=1 / sliced_threads=0 / nr=0 / decimate=0 / interlaced=0 / bluray_compat=0 / constrained_intra=0 / bframes=3 / b_pyramid=2 / b_adapt=2 / b_bias=0 / direct=3 / weightb=1 / open_gop=0 / weightp=2 / keyint=250 / keyint_min=25 / scenecut=40 / intra_refresh=0 / rc_lookahead=40 / rc=2pass / mbtree=1 / bitrate=1080 / ratetol=1.0 / qcomp=0.60 / qpmin=0 / qpmax=69 / qpstep=4 / cplxblur=20.0 / qblur=0.5 / ip_ratio=1.40 / aq=1:1.00Language : EnglishEncoded date : UTC 2015-02-25 11:46:12Tagged date : UTC 2015-02-25 11:46:13Color primaries : BT.601 PALTransfer characteristics : BT.470 System B, BT.470 System GMatrix coefficients : BT.601

AudioID : 2Format : AACFormat/Info : Advanced Audio CodecFormat profile : LCCodec ID : 40Duration : 15mn 29sBit rate mode : VariableBit rate : 128 KbpsMaximum bit rate : 129 KbpsChannel(s) : 2 channelsChannel positions : Front: L RSampling rate : 48.0 KHzCompression mode : LossyStream size : 14.2 MiB (11%)Language : RussianEncoded date : UTC 2015-02-25 11:46:13Tagged date : UTC 2015-02-25 11:46:13


Трекер:  [ 25-Фев-2015 18:00 ]

  

Скачать .torrent

Размер .torrent файла 11 KB


Размер: 135 MB
Хэш (hash) релиза: 60cc2af4f6545365f914b534fea327cdb7e836dc

Еще никто не оставлял запись к записи скачать торрент [MULT] Бармалей . Будь первым!

!Обратная связь