Les rappels de long | Pixelmator 3.7.1 | Shawn Long

Скачать через торрент [MULT] Лимпопо бесплатно русская версия torrent активатор

Статистика раздачи
Размер:  109 MB   |    Зарегистрирован:  3 года 4 месяца   |    .torrent скачан:  35 раз   |   
Раздают:  1  
   
загрузка...
 
Автор Сообщение

Galfimbul

avatar Galfimbul


Лимпопо

Год выпуска: 1939
Страна: СССР
Производство: ФГУП "Киностудия "Союзмультфильм"
Жанр: мультфильм, короткометражка
Продолжительность: 00:12:30
Перевод: Не требуется
Cубтитры: нет
Режиссер: Владимир Полковников, Леонид Амальрик
Роли озвучивали: Юлия Юльская, Ирина Мазинг, И. Кремлева, Андрей Тутышкин, Владимир Лепко, Н. Чкаусели
Описание: Мультипликационный фильм по одноименной сказке Корнея Чуковского о самоотверженном докторе Айболите, который, преодолевая все препятствия, поехал в Африку лечить больных зверей.
Доп. информация:

Доп. информация: Издание без реставрацииКачество: DVDRip / [url=...3043902]DVD5 лицензионное издание "СОЮЗ-видео"[/url]
Формат: MP4
Видео кодек: H.264
Аудио кодек: AAC
Видео: 464x360 AR:1.289 1080 kbps, 25 fps
Аудио: 2 ch, 48 kHz, 128 kbps
...last pass...

x264.exe: --pass 2 --bitrate 1080 --preset medium --profile high --level 4.1 --ref 8 --deblock 1:1 --merange 24 --no-chroma-me --direct auto --b-adapt 2 --trellis 2 --no-fast-pskip --no-dct-decimate --psy-rd 1.00:0.10 --partitions all --subme 9 --me umh --colorprim bt470bg --transfer bt470bg --colormatrix bt470bg --sar 1:1 --stats "J:\DC\Limpopo.log" --output "J:\DC\Limpopo.mp4" "J:\Temp\0018.avs"

avs [info]: 464x360p 1:1 @ 25/1 fps (cfr)
x264 [info]: using SAR=1/1
x264 [info]: using cpu capabilities: MMX2 SSE2Fast SSSE3 SSE4.2 LZCNT
x264 [info]: profile High, level 4.1

x264 [info]: frame I:107 Avg QP:26.71 size: 14314
x264 [info]: frame P:5705 Avg QP:30.02 size: 7271
x264 [info]: frame B:12961 Avg QP:31.89 size: 4508
x264 [info]: consecutive B-frames: 2.3% 6.9% 29.7% 61.0%
x264 [info]: mb I I16..4: 14.3% 73.6% 12.0%
x264 [info]: mb P I16..4: 3.6% 19.2% 1.0% P16..4: 45.2% 17.2% 10.0% 0.2% 0.0% skip: 3.5%
x264 [info]: mb B I16..4: 0.2% 5.1% 0.2% B16..8: 42.0% 14.7% 3.3% direct:11.2% skip:23.4% L0:53.2% L1:41.7% BI: 5.0%
x264 [info]: 8x8 transform intra:84.3% inter:76.3%
x264 [info]: direct mvs spatial:97.6% temporal:2.4%
x264 [info]: coded y,uvDC,uvAC intra: 83.8% 8.7% 0.3% inter: 44.2% 2.5% 0.1%
x264 [info]: i16 v,h,dc,p: 36% 25% 19% 19%
x264 [info]: i8 v,h,dc,ddl,ddr,vr,hd,vl,hu: 8% 5% 5% 11% 17% 12% 17% 9% 16%
x264 [info]: i4 v,h,dc,ddl,ddr,vr,hd,vl,hu: 8% 7% 5% 9% 14% 11% 16% 11% 19%
x264 [info]: i8c dc,h,v,p: 86% 11% 2% 0%
x264 [info]: Weighted P-Frames: Y:61.6% UV:6.1%
x264 [info]: ref P L0: 36.3% 9.7% 15.1% 9.8% 7.8% 7.0% 6.0% 4.2% 3.3% 0.7%
x264 [info]: ref B L0: 51.6% 16.5% 11.7% 7.1% 6.3% 4.8% 2.2%
x264 [info]: ref B L1: 89.2% 10.8%
x264 [info]: kb/s:1080.74

x264 [total]: encoded 18773 frames, 15.40 fps, 1080.75 kb/s
GeneralComplete name : J:\Torrents\Limpopo.1939.DVDRip.x264.640x.rip by Frost O.S.mp4Format : MPEG-4Codec ID : M4VFile size : 109 MiBDuration : 12mn 30sOverall bit rate mode : VariableOverall bit rate : 1 218 KbpsMovie name : LimpopoContentType : Short FilmEncoded date : UTC 2015-02-25 12:28:36Tagged date : UTC 2015-02-25 12:28:41Writing application : MkvToMp4 version: 0.224 (x64)Cover : Yes

VideoID : 1Format : AVCFormat/Info : Advanced Video CodecFormat profile : [email protected] settings, CABAC : YesFormat settings, ReFrames : 8 framesCodec ID : avc1Codec ID/Info : Advanced Video CodingDuration : 12mn 30sBit rate : 1 080 KbpsMaximum bit rate : 2 058 KbpsWidth : 464 pixelsHeight : 360 pixelsDisplay aspect ratio : 1.289Frame rate mode : ConstantFrame rate : 25.000 fpsColor space : YUVChroma subsampling : 4:2:0Bit depth : 8 bitsScan type : ProgressiveBits/(Pixel*Frame) : 0.259Stream size : 96.7 MiB (89%)Writing library : x264 core 130 r2273 b3065e6Encoding settings : cabac=1 / ref=8 / deblock=1:1:1 / analyse=0x3:0x133 / me=umh / subme=9 / psy=1 / psy_rd=1.00:0.10 / mixed_ref=1 / me_range=24 / chroma_me=0 / trellis=2 / 8x8dct=1 / cqm=0 / deadzone=21,11 / fast_pskip=0 / chroma_qp_offset=-3 / threads=3 / lookahead_threads=1 / sliced_threads=0 / nr=0 / decimate=0 / interlaced=0 / bluray_compat=0 / constrained_intra=0 / bframes=3 / b_pyramid=2 / b_adapt=2 / b_bias=0 / direct=3 / weightb=1 / open_gop=0 / weightp=2 / keyint=250 / keyint_min=25 / scenecut=40 / intra_refresh=0 / rc_lookahead=40 / rc=2pass / mbtree=1 / bitrate=1080 / ratetol=1.0 / qcomp=0.60 / qpmin=0 / qpmax=69 / qpstep=4 / cplxblur=20.0 / qblur=0.5 / ip_ratio=1.40 / aq=1:1.00Language : EnglishEncoded date : UTC 2015-02-25 12:28:36Tagged date : UTC 2015-02-25 12:28:39Color primaries : BT.601 PALTransfer characteristics : BT.470 System B, BT.470 System GMatrix coefficients : BT.601

AudioID : 2Format : AACFormat/Info : Advanced Audio CodecFormat profile : LCCodec ID : 40Duration : 12mn 30sBit rate mode : VariableBit rate : 128 KbpsMaximum bit rate : 130 KbpsChannel(s) : 2 channelsChannel positions : Front: L RSampling rate : 48.0 KHzCompression mode : LossyStream size : 11.5 MiB (11%)Language : RussianEncoded date : UTC 2015-02-25 12:28:38Tagged date : UTC 2015-02-25 12:28:39


Трекер:  [ 25-Фев-2015 18:00 ]

  

Скачать .torrent

Размер .torrent файла 17 KB


Размер: 109 MB
Хэш (hash) релиза: bca710dbb402feb3a8ae87e63a37b960b283b7d9

Еще никто не оставлял запись к записи скачать торрент [MULT] Лимпопо . Будь первым!

!Обратная связь