Baixar toque para celular | Far cry 5 gold edition (2018)(driver)(mega) | The Client List

Скачать через торрент [MULT] Карапузы в Париже Rugrats in Paris: The Movie - Rugrats II бесплатно русская версия torrent активатор

Статистика раздачи
Размер:  1.17 GB   |    Зарегистрирован:  3 года 4 месяца   |    .torrent скачан:  35 раз   |   
Раздают:  1  
   
загрузка...
 
Автор Сообщение

Galfimbul

avatar Galfimbul


Карапузы в Париже / Rugrats in Paris: The Movie - Rugrats II
«France never had a chance!»

Год выпуска: 2000
Страна: США, Германия
Жанр: мультфильм, комедия, приключения, семейный
Продолжительность: 01:18:28
Перевод №1: Профессиональный (дублированный) | СТС
Перевод №2: Профессиональный (многоголосый, закадровый)
Перевод №3: Авторский (одноголосый, закадровый) | С.Визгунов
Cубтитры: нет
Режиссер: Стиг Бергквист / Stig Bergqvist, Пол Димайер / Paul Demeyer
Роли озвучивали : Элизабет Дэйли / Elizabeth Daily, Тара Стронг / Tara Strong, Шерил Чейз / Cheryl Chase, Кристин Кавана / Christine Cavanaugh, Кри Саммер / Cree Summer и другие .
Роли дублировали : Татьяна Весёлкина, Ольга Голованова, Никита Прозоровский .
Описание: Приключения продолжаются! Наши любимые карапузы решили взять приступом город Париж! Берегись Франция: самые отчаянные малыши на свете решили осчастливить тебя своим внезапным визитом. Земля древних галлов доживает свои последние спокойные часы перед тем, как на нее ступит нога карапуза…
Доп. информация:
Релиз группы
Качество: WEB-DLRip / [url=...4907412]WEB-DL 720p[/url]
Формат: MP4
Видео кодек: H.264
Аудио кодек: AAC
Видео: 960x536 AR:16/9 1740 kbps, 23.976 fps
Аудио №1: [Russian] 2 ch, 48 kHz, 128 kbps - [DUB]
Аудио №2: [Russian] 2 ch, 48 kHz, 128 kbps - [MVO]
Аудио №3: [Russian] 2 ch, 48 kHz, 128 kbps - [VO] / C.Визгунов
...last pass...

x264.exe: --pass 2 --bitrate 1740 --preset medium --profile high --level 4.1 --ref 8 --deblock 1:1 --merange 24 --no-chroma-me --direct auto --b-adapt 2 --trellis 2 --no-fast-pskip --no-dct-decimate --psy-rd 1.00:0.10 --subme 9 --me umh --colorprim bt709 --transfer bt709 --colormatrix bt709 --sar 1:1 --stats "J:\Rugrats In Paris.The Movie.2000.WEB-DL 720p.log" --output "J:\Rugrats In Paris.The Movie.2000.WEB-DL 720p.mp4" "J:\Temp\0014.avs"

avs [info]: 960x536p 1:1 @ 2500000/104271 fps (cfr)
x264 [info]: using SAR=1/1
x264 [info]: using cpu capabilities: MMX2 SSE2Fast SSSE3 SSE4.2 LZCNT
x264 [info]: profile High, level 4.1

x264 [info]: frame I:1376 Avg QP:16.97 size: 58465
x264 [info]: frame P:33811 Avg QP:19.83 size: 18587
x264 [info]: frame B:77691 Avg QP:22.58 size: 4053
x264 [info]: consecutive B-frames: 4.4% 6.1% 16.5% 73.1%
x264 [info]: mb I I16..4: 12.2% 51.3% 36.5%
x264 [info]: mb P I16..4: 4.8% 8.8% 3.1% P16..4: 42.0% 19.1% 12.3% 0.0% 0.0% skip: 9.9%
x264 [info]: mb B I16..4: 0.4% 0.5% 0.3% B16..8: 34.4% 6.9% 1.8% direct: 3.3% skip:52.2% L0:43.6% L1:50.5% BI: 6.0%
x264 [info]: 8x8 transform intra:51.0% inter:53.4%
x264 [info]: direct mvs spatial:94.1% temporal:5.9%
x264 [info]: coded y,uvDC,uvAC intra: 61.4% 81.2% 57.4% inter: 15.0% 25.1% 10.6%
x264 [info]: i16 v,h,dc,p: 45% 24% 19% 12%
x264 [info]: i8 v,h,dc,ddl,ddr,vr,hd,vl,hu: 13% 12% 18% 8% 9% 9% 10% 9% 12%
x264 [info]: i4 v,h,dc,ddl,ddr,vr,hd,vl,hu: 18% 13% 10% 8% 11% 10% 10% 9% 11%
x264 [info]: i8c dc,h,v,p: 43% 28% 21% 9%
x264 [info]: Weighted P-Frames: Y:2.8% UV:1.6%
x264 [info]: ref P L0: 61.1% 7.1% 14.9% 5.0% 3.7% 3.1% 2.7% 1.8% 0.5% 0.0%
x264 [info]: ref B L0: 82.4% 9.3% 3.9% 1.6% 1.2% 0.9% 0.6%
x264 [info]: ref B L1: 94.7% 5.3%
x264 [info]: kb/s:1739.72

x264 [total]: encoded 112878 frames, 10.80 fps, 1739.72 kb/s
GeneralComplete name : J:\Torrents\Rugrats In Paris.The Movie.2000.WEB-DLRip.x264.960x.rip by Frost O.S.mp4Format : MPEG-4Codec ID : M4VFile size : 1.17 GiBDuration : 1h 18mnOverall bit rate mode : VariableOverall bit rate : 2 140 KbpsMovie name : Rugrats In Paris The Movie 2000 WEB-DLRip x264 960x rip by Frost O SGenre : Children'sContentType : Short FilmRecorded date : 05.11.2000Encoded date : UTC 2015-02-22 13:31:45Tagged date : UTC 2015-02-22 13:33:54Writing application : MkvToMp4 version: 0.224 (x64)Cover : YesComment : rip by Frost O.SContentRating : ru-movie|0+|100|iTunMOVI : <?xml version="1.0" encoding="UTF-8"?> / <!DOCTYPE plist PUBLIC "-//Apple//DTD PLIST 1.0//EN" "http://www.apple.com/DTDs/PropertyList-1.0.dtd"> / <plist version="1.0"> / <dict> / <key>directors</key> / <array> / <dict> / <key>name</key> / <string>Stig Bergqvist</string> / </dict> / <dict> / <key>name</key> / <string>Paul Demeyer</string> / </dict> / </array> / </dict> / </plist>

VideoID : 1Format : AVCFormat/Info : Advanced Video CodecFormat profile : [email protected] settings, CABAC : YesFormat settings, ReFrames : 8 framesCodec ID : avc1Codec ID/Info : Advanced Video CodingDuration : 1h 18mnBit rate : 1 740 KbpsMaximum bit rate : 6 610 KbpsWidth : 960 pixelsHeight : 536 pixelsDisplay aspect ratio : 16:9Frame rate mode : ConstantFrame rate : 23.976 fpsColor space : YUVChroma subsampling : 4:2:0Bit depth : 8 bitsScan type : ProgressiveBits/(Pixel*Frame) : 0.141Stream size : 976 MiB (81%)Writing library : x264 core 130 r2273 b3065e6Encoding settings : cabac=1 / ref=8 / deblock=1:1:1 / analyse=0x3:0x113 / me=umh / subme=9 / psy=1 / psy_rd=1.00:0.10 / mixed_ref=1 / me_range=24 / chroma_me=0 / trellis=2 / 8x8dct=1 / cqm=0 / deadzone=21,11 / fast_pskip=0 / chroma_qp_offset=-3 / threads=3 / lookahead_threads=1 / sliced_threads=0 / nr=0 / decimate=0 / interlaced=0 / bluray_compat=0 / constrained_intra=0 / bframes=3 / b_pyramid=2 / b_adapt=2 / b_bias=0 / direct=3 / weightb=1 / open_gop=0 / weightp=2 / keyint=250 / keyint_min=23 / scenecut=40 / intra_refresh=0 / rc_lookahead=40 / rc=2pass / mbtree=1 / bitrate=1740 / ratetol=1.0 / qcomp=0.60 / qpmin=0 / qpmax=69 / qpstep=4 / cplxblur=20.0 / qblur=0.5 / ip_ratio=1.40 / aq=1:1.00Language : EnglishEncoded date : UTC 2015-02-22 13:31:45Tagged date : UTC 2015-02-22 13:32:10Color primaries : BT.709Transfer characteristics : BT.709Matrix coefficients : BT.709

Audio #1ID : 2Format : AACFormat/Info : Advanced Audio CodecFormat profile : LCCodec ID : 40Duration : 1h 18mnBit rate mode : VariableBit rate : 128 KbpsMaximum bit rate : 132 KbpsChannel(s) : 2 channelsChannel positions : Front: L RSampling rate : 48.0 KHzCompression mode : LossyStream size : 71.8 MiB (6%)Title : [DUB] CTCLanguage : RussianEncoded date : UTC 2015-02-22 13:32:03Tagged date : UTC 2015-02-22 13:32:10

Audio #2ID : 3Format : AACFormat/Info : Advanced Audio CodecFormat profile : LCCodec ID : 40Duration : 1h 18mnBit rate mode : VariableBit rate : 128 KbpsMaximum bit rate : 132 KbpsChannel(s) : 2 channelsChannel positions : Front: L RSampling rate : 48.0 KHzCompression mode : LossyStream size : 71.8 MiB (6%)Title : [MVO]Language : RussianEncoded date : UTC 2015-02-22 13:32:05Tagged date : UTC 2015-02-22 13:32:10

Audio #3ID : 4Format : AACFormat/Info : Advanced Audio CodecFormat profile : LCCodec ID : 40Duration : 1h 18mnBit rate mode : VariableBit rate : 128 KbpsMaximum bit rate : 132 KbpsChannel(s) : 2 channelsChannel positions : Front: L RSampling rate : 48.0 KHzCompression mode : LossyStream size : 71.8 MiB (6%)Title : [AVO] VizgunovLanguage : RussianEncoded date : UTC 2015-02-22 13:32:08Tagged date : UTC 2015-02-22 13:32:10


Трекер:  [ 22-Фев-2015 22:00 ]

  

Скачать .torrent

Размер .torrent файла 12 KB


Размер: 1.17 GB
Хэш (hash) релиза: 5cabdf218f488e16bd7244a5ab464781f1cee7c0

Еще никто не оставлял запись к записи скачать торрент [MULT] Карапузы в Париже Rugrats in Paris: The Movie - Rugrats II . Будь первым!

!Обратная связь