Программное обеспечение | Love at Stake (Entangled Covet) | rapidvideo.com

Скачать через торрент [SERIAL] Викинги Vikings бесплатно русская версия torrent активатор

Статистика раздачи
Размер:  366 MB   |    Зарегистрирован:  3 года 4 месяца   |    .torrent скачан:  33 раза   |   
Раздают:  1  
   
загрузка...
 
Автор Сообщение

Galfimbul

avatar Galfimbul


Викинги / Vikings

Год выпуска: 2015
Страна: Ирландия, Канада
Жанр: боевик, драма, военный, история
Продолжительность: 00:45:10
Перевод: Профессиональный (многоголосый закадровый) AlexFilm
Cубтитры: нет

Режиссер: Кен Джиротти, Джефф Вулнаф, Киаран Доннелли

В ролях: Трэвис Фиммел, Клайв Стэнден, Кэтрин Уинник, Джессалин Гилсиг, Джордж Благден, Густаф Скарсгард, Александр Людвиг, Алисса Сазерленд, Лайнас Роуч, Бен Робсон, Кевин Дюран, Лотер Блюто, Моргана Полански, Мод Хирст...

Описание: История повествует о приключениях величайшего героя своего времени – Рагнара Лодброка. В сериале показан Рагнар со своим племенем братьев-викингов и его семьёй в процессе становления королём всех племён викингов. Рагнар – бесстрашный воин, и религиозный викинг, который объединяет все племена и распространяет среди них поклонение скандинавским богам. Согласно легенде, он – прямой потомок Одина, бога войны и воителей.

Исходник (ссылка): [url]...4943951[/url]

Качество: WEB-DLRip
Формат: MP4
Видео кодек: H.264
Аудио кодек: AAC
Видео: 800x448 (16:9) 23.976fps 1000Kbps
Аудио: AAC 48000Hz 128Kbps stereo 2chДобавлена 1 серия
Format : MPEG-4Format profile : Base Media / Version 2Codec ID : mp42File size : 366 MiBDuration : 45mn 10sOverall bit rate mode : VariableOverall bit rate : 1 134 KbpsMovie name : Vikings 3x01 Mercenary @ AlexFilmEncoded date : UTC 2015-02-20 21:17:39Tagged date : UTC 2015-02-20 21:47:51Writing application : HandBrake 0.9.9 2013052900

VideoID : 1Format : AVCFormat/Info : Advanced Video CodecFormat profile : [email protected] settings, CABAC : YesFormat settings, ReFrames : 12 framesCodec ID : avc1Codec ID/Info : Advanced Video CodingDuration : 45mn 10sBit rate : 1 000 KbpsWidth : 800 pixelsHeight : 448 pixelsDisplay aspect ratio : 16:9Original display aspect ratio : 16:9Frame rate mode : VariableFrame rate : 23.976 fpsMinimum frame rate : 23.810 fpsMaximum frame rate : 24.390 fpsColor space : YUVChroma subsampling : 4:2:0Bit depth : 8 bitsScan type : ProgressiveBits/(Pixel*Frame) : 0.116Stream size : 323 MiB (88%)Writing library : x264 core 130 r2273 b3065e6Encoding settings : cabac=1 / ref=12 / deblock=1:-1:-1 / analyse=0x1:0x131 / me=umh / subme=10 / psy=1 / psy_rd=1.00:0.15 / mixed_ref=1 / me_range=24 / chroma_me=1 / trellis=2 / 8x8dct=0 / cqm=0 / deadzone=21,11 / fast_pskip=1 / chroma_qp_offset=-3 / threads=12 / lookahead_threads=2 / sliced_threads=0 / nr=0 / decimate=1 / interlaced=0 / bluray_compat=0 / constrained_intra=0 / bframes=8 / b_pyramid=2 / b_adapt=2 / b_bias=0 / direct=3 / weightb=1 / open_gop=0 / weightp=2 / keyint=240 / keyint_min=24 / scenecut=40 / intra_refresh=0 / rc_lookahead=60 / rc=2pass / mbtree=1 / bitrate=1000 / ratetol=1.0 / qcomp=0.60 / qpmin=0 / qpmax=69 / qpstep=4 / cplxblur=20.0 / qblur=0.5 / vbv_maxrate=14000 / vbv_bufsize=14000 / nal_hrd=none / ip_ratio=1.40 / aq=1:1.00Encoded date : UTC 2015-02-20 21:17:39Tagged date : UTC 2015-02-20 21:47:51Color primaries : BT.709Transfer characteristics : BT.709Matrix coefficients : BT.709

AudioID : 2Format : AACFormat/Info : Advanced Audio CodecFormat profile : LCCodec ID : 40Duration : 45mn 10sBit rate mode : VariableBit rate : 128 KbpsMaximum bit rate : 185 KbpsChannel(s) : 2 channelsChannel positions : Front: L RSampling rate : 48.0 KHzCompression mode : LossyStream size : 41.3 MiB (11%)Language : RussianEncoded date : UTC 2015-02-20 21:17:39Tagged date : UTC 2015-02-20 21:47:51


Трекер:  [ 21-Фев-2015 12:00 ]

  

Скачать .torrent

Размер .torrent файла 15 KB


Размер: 366 MB
Хэш (hash) релиза: 280c51fd496f2b1d7f57069c7cd4240f02629a2f

Торренты, похожие на [SERIAL] Викинги Vikings скачать торрент

Форум Название Автор Размер S L Добавлен
Видео (Фильмы/Клипы) ·· [SERIAL] Викинги / Vikings / Сезон 3 / Серии 1-2 (10) / (Кен Джиротти, Джефф Вулнаф, Киаран Доннелли) [2015, боевик, драма, военный, история, WEB-DLRip] [MP4, 800x] MVO AlexFilm Galfimbul 759767857725 MB 0 0 1425111729

11:22

28-Фев-15

Еще никто не оставлял запись к записи скачать торрент [SERIAL] Викинги Vikings . Будь первым!

!Обратная связь