Chérie 25 en direct | Кулинария | François Civil

Скачать через торрент [SERIAL] Царство Reign бесплатно русская версия torrent активатор

Статистика раздачи
Размер:  4.06 GB   |    Зарегистрирован:  3 года 4 месяца   |    .torrent скачан:  38 раз   |   
Раздают:  1  
   
загрузка...
 
Автор Сообщение

Galfimbul

avatar Galfimbul


Царство
Reign

Год выпуска: 2013
Страна: США (CBS Television Studios, Joyful Girl Productions, Octagon Films, Warner Bros. Television, World 2000 Entertainment)
Жанр: Историческая драма, фэнтези
Продолжительность: ~ 00:42:00 x 22
Перевод: Профессиональный (многоголосый закадровый) [Amedia]
Оригинальная дорожка: Нет
Cубтитры: Нет
Режиссер: Холли Дэйл, Фред Гербер, Джеримайя С. Чечик
В ролях: Аделаида Кейн, Меган Фоллоуз, Торранс Кумбс, Тоби Регбо, Дженесса Грант, Селина Синден, Кейтлин Стэйси, Анна Попплуэлл, Алан Ван Спрэнг и др.
Описание: Сериал повествует о событиях 1557 года. Королеву Шотландии, Марию, с детства прячут в монастыре. Обходить стороной соперников, злодеев, желающих её смерти, ей помогают монахини. Но приходит время возвращаться в замок и становиться не только титулованной королевой, но и женой принца Франциска, с которым девушка была обручена ещё несколько лет назад. Это политический союз, который должен укрепить позиции Шотландии. Основу всей царской жизни составляют хитроумные планы и интриги. Король смотрит на женитьбу только как на способ сблизиться с другой страной и сделать свою власть ещё масштабнее и крепче. У короля есть незаконный сын, который противостоит этому браку. Более того, Нострадамус предсказал, что брак с Марией будет стоить жизни Франциску. Екатерина Медичи делает все, чтобы спасти своего сына. Кроме этого, в замке присутствуют темные силы, которые также противодействуют этому браку. Жители же суеверны и доверяют магии.
Дополнительно: В видеоряд вшита реклама другого ресурса.

Все раздачи сериала
Качество: WEB-DLRip (Рип с [url=...4828544]WEB-DLRip[/url])
Формат: MP4
Видео: XviD, 480х264 (16:9), 23.976 fps, ~500 Kbps
Аудио: Русский, AAC, 48.0 KHz, 2 ch, 128 Kbps [MVO, Amedia]
<ol type="1">
Пилот / Pilot
Змеи в саду / Snakes in the Garden
Поцелованная / Kissed
Умом и сердцем / Hearts and Minds
Прохлада в воздухе / A Chill in the Air
Избранный / Chosen
Оставленное позади / Left Behind
Обреченные / Fated
За короля и отечество / For King and Country
Жертва / Sacrifice
Инквизиция / Inquisition
Королевская кровь / Royal Blood
Консуммация / The Consummation
Грязное белье / Dirty Laundry
Темнота / The Darkness
Монстры / Monsters
Сеньор / Liege Lord
Нет выхода / No Exit
Игрушечные солдатики / Toy Soldiers
Высшие мотивы / Higher Ground
Да здравствует король! / Long Live the King
Истребление невинности / Slaughter of Innocence
</ol>
General
Complete name : Regin.S01.2013.WEB-DLRip.XviD.480x(semen_52-TNC)\Reign.S01E01.2013.WEB-DLRip.XviD.480x(semen_52-TNC).mp4
Format : MPEG-4
Format profile : Base Media
Codec ID : isom
File size : 193 MiB
Duration : 42mn 35s
Overall bit rate mode : Variable
Overall bit rate : 632 Kbps
Collection : Reign
Season : 1
Part : 1
Part/Position : 1
Track name/Position : 1
ContentType : TV Show
Encoded date : UTC 2014-10-23 14:30:35
Tagged date : UTC 2014-10-23 14:30:55
Writing application : MkvToMp4 version: 0.224 (x64)
Comment : Rip by semen_52-TNC
Title/Sort : Reign

Video
ID : 1
Format : MPEG-4 Visual
Format profile : Advanced [email protected]
Format settings, BVOP : No
Format settings, QPel : No
Format settings, GMC : No warppoints
Format settings, Matrix : Custom
Codec ID : 20
Duration : 42mn 35s
Bit rate mode : Variable
Bit rate : 499 Kbps
Maximum bit rate : 2 303 Kbps
Width : 480 pixels
Height : 264 pixels
Display aspect ratio : 16:9
Frame rate mode : Constant
Frame rate : 23.976 fps
Color space : YUV
Chroma subsampling : 4:2:0
Bit depth : 8 bits
Scan type : Progressive
Compression mode : Lossy
Bits/(Pixel*Frame) : 0.164
Stream size : 152 MiB (79%)
Writing library : XviD 73
Language : English
Tagged date : UTC 2014-10-23 14:30:38

Audio
ID : 2
Format : AAC
Format/Info : Advanced Audio Codec
Format profile : LC
Codec ID : 40
Duration : 42mn 35s
Bit rate mode : Variable
Bit rate : 128 Kbps
Maximum bit rate : 159 Kbps
Channel(s) : 2 channels
Channel positions : Front: L R
Sampling rate : 48.0 KHz
Compression mode : Lossy
Stream size : 39.0 MiB (20%)
Title : MVO Amedia
Language : Russian
Encoded date : UTC 2014-10-23 14:30:36
Tagged date : UTC 2014-10-23 14:30:38


Трекер:  [ 21-Фев-2015 09:30 ]

  

Скачать .torrent

Размер .torrent файла 22 KB


Размер: 4.06 GB
Хэш (hash) релиза: 0d92efeff1f392fe7b22c6a7a42e67117cbce945

Еще никто не оставлял запись к записи скачать торрент [SERIAL] Царство Reign . Будь первым!

!Обратная связь