The First Day season 07 episode 16 | Power - Saison 5 | Оттенки синего / Shades of Blue [03х01-05 из 13] (2018) WEBRip 1080p | Profix Media

Скачать через торрент [VIDEO] Свалка Мусор бесплатно русская версия torrent активатор

Статистика раздачи
Размер:  1.27 GB   |    Зарегистрирован:  3 года 5 месяцев   |    .torrent скачан:  45 раз   |   
Раздают:  1  
   
загрузка...
 
Автор Сообщение

Galfimbul

avatar Galfimbul


Свалка / Мусор
Trash

Год выпуска: 2014
Страна: Великобритания, Бразилия (O2 Filmes, PeaPie Films, Working Title Films)
Жанр: Триллер, драма, комедия, криминал, приключения
Продолжительность: 01:53:43
Перевод: Профессиональный (дублированный)
Оригинальная дорожка: Английский
Cубтитры: Русские отключаемые, полные
Режиссер: Стивен Долдри / Stephen Daldry
В ролях: Руни Мара, Мартин Шин, Вагнер Моура, Селтон Мелу, Кристиана Аманпур, Риксон Тевес, Андре Рамиру, Хесвита Барбоса, Нелсон Шавьер
Описание: История о трех мальчиках, живущих в стране третьего мира. Они еле сводят концы с концами, копаясь в мусоре. Однажды они находят кожаную сумку, содержимое которой окунает их в ужасное приключение…

Качество: HDRip (Рип с BDRip 1080p)
Формат: MP4
Видео: AVC, 960x408 (2.35:1), 1330 kbps, 23.976 fps
Аудио 1: Русский, AAC, 2 ch, 48 kHz, 128 kbps [Dub]
Аудио 2: Английский, AAC, 2 ch, 48 kHz, 128 kbps [Original]
Британская академия, 2015 год
Номинации (1):
Лучший фильм на иностранном языке
x264 [info]: frame I:1581 Avg QP:15.57 size: 67686
x264 [info]: frame P:38375 Avg QP:19.24 size: 15393
x264 [info]: frame B:123650 Avg QP:22.81 size: 3533

x264 [total]: encoded 163606 frames, 8.17 fps, 1330.19 kb/s
General
Complete name : [VIDEO] Trash.2014.HDRip.x264.960x(semen_52-TNC).mp4
Format : MPEG-4
Format profile : Base Media
Codec ID : isom
File size : 1.27 GiB
Duration : 1h 53mn
Overall bit rate mode : Variable
Overall bit rate : 1 598 Kbps
Movie name : [VIDEO] Trash 2014 HDRip x264 960x(semen_52-TNC)
ContentType : Short Film
Encoded date : UTC 2015-02-20 03:39:01
Tagged date : UTC 2015-02-20 03:43:00
Writing application : MkvToMp4 version: 0.224 (x64)
Comment : Rip by semen_52-TNC

Video
ID : 1
Format : AVC
Format/Info : Advanced Video Codec
Format profile : [email protected]
Format settings, CABAC : Yes
Format settings, ReFrames : 8 frames
Codec ID : avc1
Codec ID/Info : Advanced Video Coding
Duration : 1h 53mn
Bit rate : 1 330 Kbps
Maximum bit rate : 8 193 Kbps
Width : 960 pixels
Height : 408 pixels
Display aspect ratio : 2.35:1
Frame rate mode : Constant
Frame rate : 23.976 fps
Color space : YUV
Chroma subsampling : 4:2:0
Bit depth : 8 bits
Scan type : Progressive
Bits/(Pixel*Frame) : 0.142
Stream size : 1.06 GiB (83%)
Writing library : x264 core 130 r2273 b3065e6
Encoding settings : cabac=1 / ref=8 / deblock=1:-3:-3 / analyse=0x3:0x133 / me=esa / subme=9 / psy=1 / psy_rd=1.00:0.10 / mixed_ref=1 / me_range=32 / chroma_me=1 / trellis=2 / 8x8dct=1 / cqm=0 / deadzone=21,11 / fast_pskip=0 / chroma_qp_offset=-3 / threads=12 / lookahead_threads=2 / sliced_threads=0 / nr=0 / decimate=1 / interlaced=0 / bluray_compat=0 / constrained_intra=0 / bframes=9 / b_pyramid=2 / b_adapt=2 / b_bias=0 / direct=1 / weightb=1 / open_gop=0 / weightp=2 / keyint=250 / keyint_min=25 / scenecut=40 / intra_refresh=0 / rc_lookahead=60 / rc=crf / mbtree=1 / crf=19.0 / qcomp=0.60 / qpmin=0 / qpmax=69 / qpstep=4 / ip_ratio=1.40 / aq=1:0.90
Language : English
Encoded date : UTC 2015-02-20 03:39:01
Tagged date : UTC 2015-02-20 03:39:29

Audio #1
ID : 2
Format : AAC
Format/Info : Advanced Audio Codec
Format profile : LC
Codec ID : 40
Duration : 1h 53mn
Bit rate mode : Variable
Bit rate : 128 Kbps
Maximum bit rate : 135 Kbps
Channel(s) : 2 channels
Channel positions : Front: L R
Sampling rate : 48.0 KHz
Compression mode : Lossy
Stream size : 104 MiB (8%)
Title : Dub / Dub
Language : Russian
Encoded date : UTC 2015-02-20 03:39:17
Tagged date : UTC 2015-02-20 03:39:29

Audio #2
ID : 3
Format : AAC
Format/Info : Advanced Audio Codec
Format profile : LC
Codec ID : 40
Duration : 1h 53mn
Bit rate mode : Variable
Bit rate : 128 Kbps
Maximum bit rate : 132 Kbps
Channel(s) : 2 channels
Channel positions : Front: L R
Sampling rate : 48.0 KHz
Compression mode : Lossy
Stream size : 104 MiB (8%)
Title : Original / Original
Language : English
Encoded date : UTC 2015-02-20 03:39:23
Tagged date : UTC 2015-02-20 03:39:29

Text
ID : 4
Format : Timed Text
Muxing mode : sbtl
Codec ID : tx3g
Duration : 1h 53mn
Bit rate mode : Variable
Bit rate : 57 bps
Stream size : 47.4 KiB (0%)
Title : Full / Full
Language : Russian
Encoded date : UTC 2015-02-20 03:39:29
Tagged date : UTC 2015-02-20 03:39:29


Трекер:  [ 20-Фев-2015 07:00 ]

  

Скачать .torrent

Размер .torrent файла 13 KB


Размер: 1.27 GB
Хэш (hash) релиза: 4da763543abc769720097afeefa32ed77d33da55

Еще никто не оставлял запись к записи скачать торрент [VIDEO] Свалка Мусор . Будь первым!

!Обратная связь