The Three Burials Of Melquiades Estrada | Espionnage | Lady Bird BluRay-Screeener

Скачать через торрент [SERIAL] Чак Chuck бесплатно русская версия torrent активатор

Статистика раздачи
Размер:  4.03 GB   |    Зарегистрирован:  3 года 4 месяца   |    .torrent скачан:  45 раз   |   
Раздают:  1  
   
загрузка...
 
Автор Сообщение

Galfimbul

avatar Galfimbul


Чак
Chuck
Сезон 1
Год выпуска: 2007
Страна: США
Жанр: Фантастика, боевик, комедия
Продолжительность: 10 х ~ 00:43:00
Перевод: Профессиональный (многоголосый закадровый) [MTV]
Оригинальная дорожка: Английский
Cубтитры: Русские полные, отключаемые
Режиссер: Роберт Данкан МакНил / Robert Duncan McNeill, Аллен Крокер / Allan Kroeker, Патрик Р. Норрис / Patrick R. Norris
В ролях: Закари Ливай, Ивонн Страховски, Адам Болдуин, Джошуа Гомез, Сара Ланкастер, Вик Сахай, Скотт Крински, Бонита Фридериси, Райан МакПартлин, Джулия Линг, Марк
Описание: Чак Бартовски — стеснительный молодой компьютерный эксперт работающий в местном магазине электроники (пародия на Best Buy) со своим лучшим другом Морганом Граймсом. Сестра Чака Элли — доктор которая постоянно заботится о своём брате и хочет помочь ему найти подружку. В ночь своего дня рождения, Чак получает e-mail от своего бывшего друга из Стэнфордского университета, Брайса Ларкина, который является сбежавшим агентом ЦРУ (Чак этого, естественно, не знает). Открыв e-mail, в мозг Чака загружается полный сервер засекреченной информации правительства США посредством длинной серии изображений. Две правительственные спецслужбы (АНБ и ЦРУ) хотят забрать эту информацию себе и посылают своих агентов - майора Джона Кейси (АНБ) и Сару Уокер (ЦРУ) - извлечь её. Так как сам диск с информацией был уничтожен в процессе неудавшегося побега Брайса, единственный оставшийся носитель - мозг Чака. Чак время от времени получает видения кусков этой информации из базы данных, активизированные определёнными подсознательными «ключами», и оба агентства вербуют его для поимки убийц и международных террористов, переворачивая его доселе непримечательную жизнь. Решение Чака держать его новоиспечённую работу в тайне от семьи и друзей, заставляет Кейси и Уокер пойти на перемирие (эти спецслужбы постоянно враждуют) и установить для себя легенды (Уокер притворяется подругой Чака, работающей в местной забегаловке, а Кейси нанимается в магазин где работает Чак), защищая жизнь Чака любой ценой.

[url=...287&nm=Chuck]Все раздачи сериала[/url]
[url=...3488664]Исходник (ссылка)[/url]
Качество: HDRip
Формат: MP4
Видео: AVC, 640х360 (16:9), 23.976 fps, 768 Kbps
Аудио 1: Русский, AAC, 48.0 KHz, 2 ch, 128 Kbps [MVO, MTV]
Аудио 2: Английский, AAC, 48.0 KHz, 2 ch, 128 Kbps [Original]
01 - «Чак против Интерсекта» / «Chuck Versus the Intersect»(Пилот)
02 - «Чак против Вертолёта» / «Chuck Versus the Helicopter»
03 - «Чак против Танго» / «Chuck Versus the Tango»
04 - «Чак против Вуки» / «Chuck Versus the Wookiee»
05 - «Чак против Шипящих Креветок» / «Chuck Versus the Sizzling Shrimp»
06 - «Чак против Песчаного Червя» / «Chuck Versus the Sandworm»
07 - «Чак против Альма-матер» / «Chuck Versus the Alma Mater»
08 - «Чак против Правды» / «Chuck Versus the Truth»
09 - «Чак против Салями» / «Chuck Versus the Imported Hard Salami»
10 - «Чак против Возмездия» / «Chuck Versus the Nemesis»
11 - «Чак против Краун Виктории» / «Chuck Versus the Crown Vic»
12 - «Чак против Любовного приключения» / «Chuck Versus the Undercover Lover»
13 - «Чак против Марлина» / «Chuck Versus the Marlin»
General
Complete name : Chuck.S01.2007.HDRip.x264.640x(semen_52-TNC)\Chuck.2007.s01e01(semen_52-TNC).mp4
Format : MPEG-4
Format profile : Base Media
Codec ID : isom
File size : 321 MiB
Duration : 43mn 15s
Overall bit rate mode : Variable
Overall bit rate : 1 036 Kbps
Collection : Chuck
Season : 1
Part : 1
ContentType : TV Show
Encoded date : UTC 2015-02-16 19:12:14
Tagged date : UTC 2015-02-16 19:13:37
Writing application : MkvToMp4 version: 0.224 (x64)
Comment : Rip by semen_52-TNC
Title/Sort : Chuck

Video
ID : 1
Format : AVC
Format/Info : Advanced Video Codec
Format profile : [email protected]
Format settings, CABAC : Yes
Format settings, ReFrames : 5 frames
Codec ID : avc1
Codec ID/Info : Advanced Video Coding
Duration : 43mn 15s
Bit rate : 768 Kbps
Maximum bit rate : 4 174 Kbps
Width : 640 pixels
Height : 360 pixels
Display aspect ratio : 16:9
Frame rate mode : Constant
Frame rate : 23.976 fps
Color space : YUV
Chroma subsampling : 4:2:0
Bit depth : 8 bits
Scan type : Progressive
Bits/(Pixel*Frame) : 0.139
Stream size : 238 MiB (74%)
Writing library : x264 core 130 r2273 b3065e6
Encoding settings : cabac=1 / ref=5 / deblock=1:-2:-2 / analyse=0x3:0x133 / me=esa / subme=9 / psy=1 / psy_rd=1.00:0.15 / mixed_ref=1 / me_range=32 / chroma_me=1 / trellis=2 / 8x8dct=1 / cqm=0 / deadzone=21,11 / fast_pskip=0 / chroma_qp_offset=-3 / threads=12 / lookahead_threads=2 / sliced_threads=0 / nr=0 / decimate=1 / interlaced=0 / bluray_compat=0 / constrained_intra=0 / bframes=3 / b_pyramid=2 / b_adapt=2 / b_bias=0 / direct=3 / weightb=1 / open_gop=0 / weightp=2 / keyint=250 / keyint_min=25 / scenecut=40 / intra_refresh=0 / rc_lookahead=60 / rc=2pass / mbtree=1 / bitrate=768 / ratetol=1.0 / qcomp=0.60 / qpmin=0 / qpmax=69 / qpstep=4 / cplxblur=20.0 / qblur=0.5 / ip_ratio=1.40 / aq=1:1.00
Language : English
Encoded date : UTC 2015-02-16 19:12:14
Tagged date : UTC 2015-02-16 19:12:42

Audio #1
ID : 2
Format : AAC
Format/Info : Advanced Audio Codec
Format profile : LC
Codec ID : 40
Duration : 43mn 15s
Bit rate mode : Variable
Bit rate : 128 Kbps
Maximum bit rate : 132 Kbps
Channel(s) : 2 channels
Channel positions : Front: L R
Sampling rate : 48.0 KHz
Compression mode : Lossy
Stream size : 39.6 MiB (12%)
Title : MVO MTV / MVO MTV
Language : Russian
Encoded date : UTC 2015-02-16 19:12:19
Tagged date : UTC 2015-02-16 19:12:42

Audio #2
ID : 3
Format : AAC
Format/Info : Advanced Audio Codec
Format profile : LC
Codec ID : 40
Duration : 43mn 15s
Bit rate mode : Variable
Bit rate : 128 Kbps
Maximum bit rate : 135 Kbps
Channel(s) : 2 channels
Channel positions : Front: L R
Sampling rate : 48.0 KHz
Compression mode : Lossy
Stream size : 39.6 MiB (12%)
Title : Original / Original
Language : English
Encoded date : UTC 2015-02-16 19:12:32
Tagged date : UTC 2015-02-16 19:12:42

Text
ID : 4
Format : Timed Text
Muxing mode : sbtl
Codec ID : tx3g
Duration : 42mn 35s
Bit rate mode : Variable
Bit rate : 128 bps
Stream size : 39.9 KiB (0%)
Language : Russian
Encoded date : UTC 2015-02-16 19:12:42
Tagged date : UTC 2015-02-16 19:12:42


Трекер:  [ 18-Фев-2015 07:00 ]

  

Скачать .torrent

Размер .torrent файла 21 KB


Размер: 4.03 GB
Хэш (hash) релиза: db0f990ae73e0095be610c43b684cedcdc4ece49

Еще никто не оставлял запись к записи скачать торрент [SERIAL] Чак Chuck . Будь первым!

!Обратная связь