วันพีช 608 | Theeran Adhigaaram Ondru (2017) (HDRip) | Joseph Thiaka

Скачать через торрент [VIDEO] Великолепный Gorgeous бесплатно русская версия torrent активатор

Статистика раздачи
Размер:  1.25 GB   |    Зарегистрирован:  3 года 5 месяцев   |    .torrent скачан:  35 раз   |   
Раздают:  1  
   
загрузка...
 
Автор Сообщение

Galfimbul

avatar Galfimbul


Великолепный / Gorgeous / Boh lei chun
«У него миллион денег и столько же неприятностей»

Год выпуска: 1999
Страна: Гонконг, Тайвань
Жанр: боевик, мелодрама, комедия
Продолжительность: 01:59:37
Перевод: Авторский (одноголосый, закадровый) Александр Кашкин
Cубтитры: нет
Режиссер: Винсент Кок / Vincent Kok
В ролях: Джеки Чан / Jackie Chan, Шу Ци / Shu Qi, Тони Люн Чу Вай / Tony Chiu Wai Leung, Эмиль Чау / Emil Chau, Ричи Рен / Richie Ren, Кен Ло / Ken Lo, Чунг-Юнг Чан / Sung Young Chen и другие .
Описание: Несравненная Бу, девушка из маленькой деревни на берегу океана, приезжает в шумный Гонконг в поисках приключений. Здесь она знакомится с Ченом — знаменитым миллионером. Но романтическая Золушка не подозревает, что Чен окажется очень опасным кавалером.
Доп. информация:
Релиз группы
В сцене, где Джеки подъезжает к отелю, чтобы встретить Бу, мы видим вход в отель The Peninsula, находящийся на Салисбери роуд в районе Цим Ша Цуи в Гонконге.
Гонконгская версия: 121 минута. Американская версия: 96 минут.
«Великолепный» — первая заметная роль Брэдли Джеймса Аллана в кино.

Качество: HDRip / [url=...3305096]BDRip 720p[/url]
Формат: MP4
Видео кодек: H.264
Аудио кодек: AAC
Видео: 960x406 AR:2.35, 1362 kbps, 23.976 fps
Аудио: [Russian] 2 ch, 48 kHz, 128 kbps - [AVO]
...last pass...

x264.exe: --pass 2 --bitrate 1362 --preset medium --profile high --level 4.1 --ref 8 --deblock -2:-2 --no-chroma-me --direct auto --b-adapt 2 --trellis 2 --no-fast-pskip --no-dct-decimate --psy-rd 1.00:0.10 --subme 9 --me umh --colorprim bt709 --transfer bt709 --colormatrix bt709 --sar 1:1 --stats "J:\Gorgeous.1999.BluRay.720p.DTS.x264.log" --output "J:\Gorgeous.1999.BluRay.720p.DTS.x264.mp4" "J:\Temp\0007.avs"

avs [info]: 960x406p 1:1 @ 2500000/104271 fps (cfr)
x264 [info]: using SAR=1/1
x264 [info]: using cpu capabilities: MMX2 SSE2Fast SSSE3 SSE4.2 LZCNT
x264 [info]: profile High, level 4.1

x264 [info]: frame I:1680 Avg QP:17.21 size: 49107
x264 [info]: frame P:48971 Avg QP:19.98 size: 14326
x264 [info]: frame B:121440 Avg QP:23.21 size: 3607
x264 [info]: consecutive B-frames: 2.5% 4.0% 18.2% 75.2%
x264 [info]: mb I I16..4: 7.4% 70.8% 21.8%
x264 [info]: mb P I16..4: 1.6% 8.5% 1.7% P16..4: 49.6% 21.2% 13.5% 0.0% 0.0% skip: 3.9%
x264 [info]: mb B I16..4: 0.1% 1.1% 0.3% B16..8: 42.5% 6.9% 1.6% direct: 3.3% skip:44.1% L0:40.0% L1:49.8% BI:10.3%
x264 [info]: 8x8 transform intra:72.8% inter:63.3%
x264 [info]: direct mvs spatial:97.1% temporal:2.9%
x264 [info]: coded y,uvDC,uvAC intra: 84.0% 81.5% 48.1% inter: 18.6% 24.9% 9.3%
x264 [info]: i16 v,h,dc,p: 36% 17% 8% 40%
x264 [info]: i8 v,h,dc,ddl,ddr,vr,hd,vl,hu: 15% 10% 3% 9% 13% 13% 14% 11% 13%
x264 [info]: i4 v,h,dc,ddl,ddr,vr,hd,vl,hu: 13% 9% 3% 9% 14% 13% 14% 10% 13%
x264 [info]: i8c dc,h,v,p: 34% 27% 22% 16%
x264 [info]: Weighted P-Frames: Y:3.0% UV:1.0%
x264 [info]: ref P L0: 51.8% 12.8% 16.1% 5.3% 4.6% 3.5% 3.3% 2.0% 0.5% 0.0%
x264 [info]: ref B L0: 83.9% 8.0% 3.7% 1.7% 1.3% 0.9% 0.6%
x264 [info]: ref B L1: 95.5% 4.5%
x264 [info]: kb/s:1362.06
encoded 172091 frames, 16.34 fps, 1362.06 kb/s
GeneralComplete name : J:\Torrents\Gorgeous.1999.HDrip.x264.960x.rip by Frost O.S.mp4Format : MPEG-4Codec ID : M4VFile size : 1.25 GiBDuration : 1h 59mnOverall bit rate mode : VariableOverall bit rate : 1 499 KbpsMovie name : Gorgeous 1999 HDrip x264 960x rip by Frost O SContentType : Short FilmEncoded date : UTC 2015-02-17 11:03:06Tagged date : UTC 2015-02-17 11:05:48Writing application : MkvToMp4 version: 0.224 (x64)Cover : YesComment : rip by Frost O.S

VideoID : 1Format : AVCFormat/Info : Advanced Video CodecFormat profile : [email protected] settings, CABAC : YesFormat settings, ReFrames : 8 framesCodec ID : avc1Codec ID/Info : Advanced Video CodingDuration : 1h 59mnBit rate : 1 362 KbpsMaximum bit rate : 10.8 MbpsWidth : 960 pixelsHeight : 406 pixelsDisplay aspect ratio : 2.35:1Frame rate mode : ConstantFrame rate : 23.976 fpsColor space : YUVChroma subsampling : 4:2:0Bit depth : 8 bitsScan type : ProgressiveBits/(Pixel*Frame) : 0.146Stream size : 1.14 GiB (91%)Writing library : x264 core 130 r2273 b3065e6Encoding settings : cabac=1 / ref=8 / deblock=1:-2:-2 / analyse=0x3:0x113 / me=umh / subme=9 / psy=1 / psy_rd=1.00:0.10 / mixed_ref=1 / me_range=16 / chroma_me=0 / trellis=2 / 8x8dct=1 / cqm=0 / deadzone=21,11 / fast_pskip=0 / chroma_qp_offset=-3 / threads=3 / lookahead_threads=1 / sliced_threads=0 / nr=0 / decimate=0 / interlaced=0 / bluray_compat=0 / constrained_intra=0 / bframes=3 / b_pyramid=2 / b_adapt=2 / b_bias=0 / direct=3 / weightb=1 / open_gop=0 / weightp=2 / keyint=250 / keyint_min=23 / scenecut=40 / intra_refresh=0 / rc_lookahead=40 / rc=2pass / mbtree=1 / bitrate=1362 / ratetol=1.0 / qcomp=0.60 / qpmin=0 / qpmax=69 / qpstep=4 / cplxblur=20.0 / qblur=0.5 / ip_ratio=1.40 / aq=1:1.00Language : EnglishEncoded date : UTC 2015-02-17 11:03:06Tagged date : UTC 2015-02-17 11:03:41Color primaries : BT.709Transfer characteristics : BT.709Matrix coefficients : BT.709

AudioID : 2Format : AACFormat/Info : Advanced Audio CodecFormat profile : LCCodec ID : 40Duration : 1h 59mnBit rate mode : VariableBit rate : 128 KbpsMaximum bit rate : 132 KbpsChannel(s) : 2 channelsChannel positions : Front: L RSampling rate : 48.0 KHzCompression mode : LossyStream size : 110 MiB (9%)Language : RussianEncoded date : UTC 2015-02-17 11:03:36Tagged date : UTC 2015-02-17 11:03:41


Трекер:  [ 17-Фев-2015 18:30 ]

  

Скачать .torrent

Размер .torrent файла 13 KB


Размер: 1.25 GB
Хэш (hash) релиза: 1179d689ba3141b0072b7728c8828eb62dcf8d3d

Еще никто не оставлял запись к записи скачать торрент [VIDEO] Великолепный Gorgeous . Будь первым!

!Обратная связь