Highlight Siapa Takut jatuh Cinta - Episode 347 | Regarder Aladdin en Streaming Gratuit | Life Sentence

Скачать через торрент [SERIAL] Выстрел Сезон: 1 бесплатно русская версия torrent активатор

Статистика раздачи
Размер:  1.1 GB   |    Зарегистрирован:  3 года 6 месяцев   |    .torrent скачан:  25 раз   |   
Раздают:  1  
   
загрузка...
 
Автор Сообщение

Galfimbul

avatar Galfimbul


Выстрел
Год выпуска: 2015
Страна: Россия
Жанр: Драма
Продолжительность: 12 x ~00:48:00
Режиссер: Сергей Коротаев
В ролях: Юрий Борисов, Гела Месхи, Данила Шевченко, Сергей Соцердотский, Владимир Меньшов, Сергей Годин, Мария Белоненко, Паулина Андреева, Дмитрий Панфилов, Сергей Угрюмов, Евгения Симонова, Юрий Шлыков, Елена Валюшкина, Анна Курцын, Александра Бортич, Лидия Милюзина
Описание: В сибирском городе бывшему чемпиону Европы Василию Фатееву удается взрастить отличную команду биатлонистов: Павла Крутова, Максима Белоусова, Сергея Михеева и Бориса Шаца. Все они - одногодки, с детства знают друг друга. Парни разные и по характеру, и по воспитанию. У каждого свои планы на будущее, но стать Олимпийским чемпионом мечтает только Павел Крутов. Фатеев добивается, чтобы его ребят посмотрел главный тренер сборной России. В результате в сборную попадает лишь Крутов...
Качество: HDTVRip
Формат: MP4
Видео: AVC, 480x272 (16/9), 25.000 fps, 497 Kbps (0.152 bit/pixel)
Аудио: AAC LC, 44.1 KHz, 2 ch, 128 Kbps, CBR (Russian)

Complete name : D:\...\Выстрел.2015.MP4.aleksd72\Выстрел.01.2015.HDTVRip.mp4Format : MPEG-4Format profile : Base MediaCodec ID : isomFile size : 226 MiBDuration : 50mn 10sOverall bit rate : 630 KbpsEncoded date : UTC 2015-02-15 09:16:09Tagged date : UTC 2015-02-15 09:16:09Writing application : Lavf56.19.100Comment : by aleksd72

VideoID : 1Format : AVCFormat/Info : Advanced Video CodecFormat profile : [email protected] settings, CABAC : NoFormat settings, ReFrames : 1 frameCodec ID : avc1Codec ID/Info : Advanced Video CodingDuration : 50mn 10sBit rate : 497 KbpsWidth : 480 pixelsHeight : 272 pixelsDisplay aspect ratio : 16:9Original display aspect rat : 16:9Frame rate mode : ConstantFrame rate : 25.000 fpsStandard : ComponentColor space : YUVChroma subsampling : 4:2:0Bit depth : 8 bitsScan type : ProgressiveBits/(Pixel*Frame) : 0.152Stream size : 178 MiB (79%)Writing library : x264 core 144 r2525Encoding settings : cabac=0 / ref=1 / deblock=1:0:0 / analyse=0x1:0x110 / me=umh / subme=5 / psy=1 / psy_rd=1.00:0.00 / mixed_ref=0 / me_range=12 / chroma_me=1 / trellis=0 / 8x8dct=0 / cqm=0 / deadzone=21,11 / fast_pskip=1 / chroma_qp_offset=0 / threads=3 / lookahead_threads=1 / sliced_threads=0 / nr=0 / decimate=1 / interlaced=0 / bluray_compat=0 / constrained_intra=0 / bframes=0 / weightp=0 / keyint=250 / keyint_min=25 / scenecut=40 / intra_refresh=0 / rc_lookahead=40 / rc=abr / mbtree=0 / bitrate=497 / ratetol=1.0 / qcomp=0.60 / qpmin=8 / qpmax=69 / qpstep=4 / vbv_maxrate=3500 / vbv_bufsize=3500 / nal_hrd=none / filler=0 / ip_ratio=1.40 / aq=1:1.00Encoded date : UTC 2015-02-15 09:16:09Tagged date : UTC 2015-02-15 09:16:09Color range : Limited

AudioID : 2Format : AACFormat/Info : Advanced Audio CodecFormat profile : LCCodec ID : 40Duration : 50mn 10sBit rate mode : ConstantBit rate : 128 KbpsChannel(s) : 2 channelsChannel positions : Front: L RSampling rate : 44.1 KHzCompression mode : LossyStream size : 45.9 MiB (20%)Language : RussianEncoded date : UTC 2015-02-15 09:16:09Tagged date : UTC 2015-02-15 09:16:09


Трекер:  [ 15-Фев-2015 13:00 ]

  

Скачать .torrent

Размер .torrent файла 12 KB


Размер: 1.1 GB
Хэш (hash) релиза: a2cec8f11984dad6427977b26e6823fbe4e2e972

Еще никто не оставлял запись к записи скачать торрент [SERIAL] Выстрел Сезон: 1 . Будь первым!

!Обратная связь