BD Nisekoi 2 Subtitle Indonesia | Poems and Drawings | Pretty Little Liars Season-5

Скачать через торрент [VIDEO] Мастер со сломанными пальцами Master with cracked fingers бесплатно русская версия torrent активатор

Статистика раздачи
Размер:  683 MB   |    Зарегистрирован:  3 года 5 месяцев   |    .torrent скачан:  34 раза   |   
Раздают:  1  
   
загрузка...
 
Автор Сообщение

Galfimbul

avatar Galfimbul


Мастер со сломанными пальцами / Master with cracked fingers / Guang dong xiao lao hu
«As a boy he was taught the secrets of Kung Fu, now he will use them to avenge his father's death»

Год выпуска: 1971
Страна: Гонконг
Жанр: боевик, драма, комедия
Продолжительность: 01:18:28
Перевод: Профессиональный (многоголосый, закадровый)
Cубтитры: нет
Режиссер: Му Чу / Mu Chu
В ролях: Джеки Чан / Jackie Chan, Сиу Тиен Юэнь / Siu Tin Yuen, Дин Шек / Dean Shek, Квок Чои Хон / Kwok Choi Hon, Юэнь Бяо / Yuen Biao, Фенг Тиен / Feng Tien, Енг Му квон / Yeong-Mun и другие .
Описание: [i]В фильме Джеки Чан учится владеть самым смертельнум оружием на свете — своими руками и ногами, для того, что бы отомстить за смерть своего отца.
[b]Доп. информация
:
Релиз группы
В повторно отредактированной версии фильма, выпущенной в 1981 году, есть дополнительные кадры сражения Сиу Тиен Юэнь с лендлордом.
Оригинальный «Тигренок из Кантона» (без сцен Ло Вэя) выпущен на DVD в Японии. Расширенная версия доступна на DVD в Японии под названием Cub Tiger From Kwang Tung.
Первоначально фильм не был завершен, так как у Solar Films закончились деньги. В 1978 году, когда Джеки Чан стал популярен, к незаконченной картине добавили материал из «Пьяного мастера» (1978) и досняли последнюю сцену поединка с дублером, скрыв его лицо повязкой на глаза и используя минимум крупных планов.
Во время сцены драки между бедняком и лендлордом некоторая музыка взята из сериала «Морячок Папай» (1960-1963).

Когда банда обсуждает, как им отомстить Луну, на потолке можно увидеть большую люстру (электрическую) на 4 лампочки, а на стене — выключатель.
В сцене во дворце лендлорда видно толстяка, который обжигается девять раз. Позже в фильме тот же толстяк борется с Джеки Чаном, но у него нет ни шрамов, ни ожогов.
В некоторых сценах волосы Джеки Чана длиннее, чем в других эпизодах.
Во время боя с завязанными глазами повязка Джеки Чана выглядит прозрачной.

Качество: DVDRip / [url=...216176]DVD 5[/url]
Формат: MP4
Видео кодек: H.264
Аудио кодек: AAC
Видео: 640x360 AR:16/9 1080 kbps, 25 fps
Аудио: [Russian] 2 ch, 48 kHz, 128 kbps - [DUB]
...last pass...

x264.exe: --pass 2 --bitrate 1080 --preset medium --profile high --level 4.1 --ref 8 --deblock -2:-2 --merange 24 --no-chroma-me --direct auto --b-adapt 2 --trellis 2 --no-fast-pskip --no-dct-decimate --psy-rd 1.00:0.10 --partitions all --subme 9 --me umh --rc-lookahead 50 --colorprim bt470bg --transfer bt470bg --colormatrix bt470bg --sar 1:1 --stats "J:\DC\VTS_01_1_001.log" --output "J:\DC\VTS_01_1_001.mp4" "D:\Temp\0003.avs"

avs [info]: 640x360p 1:1 @ 25/1 fps (cfr)
x264 [info]: using SAR=1/1
x264 [info]: using cpu capabilities: MMX2 SSE2Fast SSSE3 SSE4.2 LZCNT
x264 [info]: profile High, level 4.1

x264 [info]: frame I:1060 Avg QP:20.58 size: 24806
x264 [info]: frame P:33919 Avg QP:23.17 size: 9592
x264 [info]: frame B:82723 Avg QP:25.52 size: 3433
x264 [info]: consecutive B-frames: 2.1% 4.4% 24.3% 69.2%
x264 [info]: mb I I16..4: 9.8% 74.1% 16.1%
x264 [info]: mb P I16..4: 3.4% 11.4% 1.6% P16..4: 55.3% 15.6% 11.2% 0.3% 0.0% skip: 1.1%
x264 [info]: mb B I16..4: 0.3% 1.6% 0.2% B16..8: 43.2% 8.7% 1.7% direct:13.4% skip:30.8% L0:44.0% L1:46.4% BI: 9.6%
x264 [info]: 8x8 transform intra:71.2% inter:69.8%
x264 [info]: direct mvs spatial:94.7% temporal:5.3%
x264 [info]: coded y,uvDC,uvAC intra: 78.8% 85.8% 49.4% inter: 30.4% 58.0% 11.6%
x264 [info]: i16 v,h,dc,p: 29% 33% 10% 27%
x264 [info]: i8 v,h,dc,ddl,ddr,vr,hd,vl,hu: 9% 7% 3% 10% 16% 14% 16% 11% 14%
x264 [info]: i4 v,h,dc,ddl,ddr,vr,hd,vl,hu: 11% 13% 3% 8% 14% 13% 16% 10% 14%
x264 [info]: i8c dc,h,v,p: 35% 27% 18% 20%
x264 [info]: Weighted P-Frames: Y:28.0% UV:18.6%
x264 [info]: ref P L0: 41.2% 13.8% 17.1% 8.0% 5.9% 5.0% 4.4% 2.9% 1.4% 0.2%
x264 [info]: ref B L0: 69.3% 15.2% 6.5% 3.4% 2.6% 2.0% 1.0%
x264 [info]: ref B L1: 92.4% 7.6%
x264 [info]: kb/s:1080.11

x264 [total]: encoded 117702 frames, 20.58 fps, 1080.11 kb/s
GeneralComplete name : J:\Torrents\Master so slomannumi palcami.1971.DVDRip.x264.640x.rip by Frost O.S.m4vFormat : MPEG-4Codec ID : M4VFile size : 683 MiBDuration : 1h 18mnOverall bit rate mode : VariableOverall bit rate : 1 217 KbpsMovie name : Master so slomannumi palcami 1971 DVDRip x264 640x rip by Frost O SContentType : Short FilmEncoded date : UTC 2015-02-11 11:50:36Tagged date : UTC 2015-02-11 11:51:47Writing application : MkvToMp4 version: 0.224 (x64)

VideoID : 1Format : AVCFormat/Info : Advanced Video CodecFormat profile : [email protected] settings, CABAC : YesFormat settings, ReFrames : 8 framesCodec ID : avc1Codec ID/Info : Advanced Video CodingDuration : 1h 18mnBit rate : 1 080 KbpsMaximum bit rate : 3 305 KbpsWidth : 640 pixelsHeight : 360 pixelsDisplay aspect ratio : 16:9Frame rate mode : ConstantFrame rate : 25.000 fpsColor space : YUVChroma subsampling : 4:2:0Bit depth : 8 bitsScan type : ProgressiveBits/(Pixel*Frame) : 0.188Stream size : 606 MiB (89%)Writing library : x264 core 130 r2273 b3065e6Encoding settings : cabac=1 / ref=8 / deblock=1:-2:-2 / analyse=0x3:0x133 / me=umh / subme=9 / psy=1 / psy_rd=1.00:0.10 / mixed_ref=1 / me_range=24 / chroma_me=0 / trellis=2 / 8x8dct=1 / cqm=0 / deadzone=21,11 / fast_pskip=0 / chroma_qp_offset=-3 / threads=3 / lookahead_threads=1 / sliced_threads=0 / nr=0 / decimate=0 / interlaced=0 / bluray_compat=0 / constrained_intra=0 / bframes=3 / b_pyramid=2 / b_adapt=2 / b_bias=0 / direct=3 / weightb=1 / open_gop=0 / weightp=2 / keyint=250 / keyint_min=25 / scenecut=40 / intra_refresh=0 / rc_lookahead=50 / rc=2pass / mbtree=1 / bitrate=1080 / ratetol=1.0 / qcomp=0.60 / qpmin=0 / qpmax=69 / qpstep=4 / cplxblur=20.0 / qblur=0.5 / ip_ratio=1.40 / aq=1:1.00Language : EnglishEncoded date : UTC 2015-02-11 11:50:36Tagged date : UTC 2015-02-11 11:51:10Color primaries : BT.601 PALTransfer characteristics : BT.470 System B, BT.470 System GMatrix coefficients : BT.601

AudioID : 2Format : AACFormat/Info : Advanced Audio CodecFormat profile : LCCodec ID : 40Duration : 1h 18mnBit rate mode : VariableBit rate : 128 KbpsMaximum bit rate : 132 KbpsChannel(s) : 2 channelsChannel positions : Front: L RSampling rate : 48.0 KHzCompression mode : LossyStream size : 71.8 MiB (11%)Language : RussianEncoded date : UTC 2015-02-11 11:51:06Tagged date : UTC 2015-02-11 11:51:10


Трекер:  [ 12-Фев-2015 13:00 ]

  

Скачать .torrent

Размер .torrent файла 14 KB


Размер: 683 MB
Хэш (hash) релиза: 0e5626154ce65531d54a2ce7f6c74bf99fe6bb06

Еще никто не оставлял запись к записи скачать торрент [VIDEO] Мастер со сломанными пальцами Master with cracked fingers . Будь первым!

!Обратная связь