Фильмы HD для Apple TV | Télécharger Part 6 | Shoulder

Скачать через торрент [SERIAL] Мажор Серии: 1-12 из 12 бесплатно русская версия torrent активатор

Статистика раздачи
Размер:  2.83 GB   |    Зарегистрирован:  3 года 5 месяцев   |    .torrent скачан:  69 раз   |   
Раздают:  1  
   
загрузка...
 
Автор Сообщение

Galfimbul

avatar Galfimbul


Мажор
Год выпуска: 2014
Страна: Россия
Жанр: Криминал, Драма
Продолжительность: 12 x ~00:54:00
Перевод: Не требуется
Русские субтитры: нет
Режиссер: Константин Статский
В ролях: Павел Прилучный, Карина Разумовская, Дмитрий Шевченко, Денис Шведов, Александр Обласов, Никита Панфилов, Анна Андрусенко, Остап Ступка, Александр Дьяченко, Игорь Жижикин, Заза Чантурия, Дмитрий Гаврилов (II), Марина Дьяконенко, Алла Мартынюк, Саак Дурян
Описание: Таких, как наш главный герой Игорь Соколовский, называют мажорами. То есть, детей высокопоставленных, богатых родителей. Наш герой имеет юридическое образование, но ни одного дня не проработал. Безответственный прожигатель жизни. В один из загулов ночью он вступился за приятеля, подрался с полицейскими, выбил табельное оружие у офицера… В итоге отец лишает героя всего и отправляет работать в отделение полиции — то самое, в котором служат ночные полицейские. Его, мажора, там не ждут. Его презирают. Но именно там он начнет становится мужчиной, встретит свою любовь и найдет убийцу мамы
Качество: WEB-DLRip
Формат: MP4
Видео кодек: H.264
Аудио кодек: AAC
Видео: AVC, 480x272 (16:9), 25.000 fps, 502 Kbps (0.154 bit/pixel)
Аудио: AAC LC, 44.1 KHz, 2 ch, 125 Kbps, VBR (Russian)

GeneralComplete name : D:\...\Mazhor.2014[mp4]\Mazhor.09.2014.WEB-DLRip.mp4Format : MPEG-4Format profile : Base MediaCodec ID : isomFile size : 239 MiBDuration : 53mn 53sOverall bit rate mode : VariableOverall bit rate : 619 KbpsEncoded date : UTC 2015-02-10 12:44:35Tagged date : UTC 2015-02-10 12:44:35Writing application : Lavf56.19.100Comment : by aleksd72

VideoID : 1Format : AVCFormat/Info : Advanced Video CodecFormat profile : [email protected] settings, CABAC : NoFormat settings, ReFrames : 1 frameCodec ID : avc1Codec ID/Info : Advanced Video CodingDuration : 53mn 53sBit rate : 494 KbpsWidth : 480 pixelsHeight : 272 pixelsDisplay aspect ratio : 16:9Original display aspect rat : 16:9Frame rate mode : ConstantFrame rate : 25.000 fpsStandard : ComponentColor space : YUVChroma subsampling : 4:2:0Bit depth : 8 bitsScan type : ProgressiveBits/(Pixel*Frame) : 0.151Stream size : 189 MiB (79%)Writing library : x264 core 144 r2525Encoding settings : cabac=0 / ref=1 / deblock=1:0:0 / analyse=0x1:0x110 / me=umh / subme=5 / psy=1 / psy_rd=1.00:0.00 / mixed_ref=0 / me_range=12 / chroma_me=1 / trellis=0 / 8x8dct=0 / cqm=0 / deadzone=21,11 / fast_pskip=1 / chroma_qp_offset=0 / threads=3 / lookahead_threads=1 / sliced_threads=0 / nr=0 / decimate=1 / interlaced=0 / bluray_compat=0 / constrained_intra=0 / bframes=0 / weightp=0 / keyint=250 / keyint_min=25 / scenecut=40 / intra_refresh=0 / rc_lookahead=40 / rc=abr / mbtree=1 / bitrate=494 / ratetol=1.0 / qcomp=0.60 / qpmin=8 / qpmax=69 / qpstep=4 / vbv_maxrate=3500 / vbv_bufsize=3500 / nal_hrd=none / filler=0 / ip_ratio=1.40 / aq=1:1.00Encoded date : UTC 2015-02-10 12:44:35Tagged date : UTC 2015-02-10 12:44:35Color range : Limited

AudioID : 2Format : AACFormat/Info : Advanced Audio CodecFormat profile : LCCodec ID : 40Duration : 53mn 53sBit rate mode : VariableBit rate : 124 KbpsMaximum bit rate : 128 KbpsChannel(s) : 2 channelsChannel positions : Front: L RSampling rate : 44.1 KHzCompression mode : LossyStream size : 47.7 MiB (20%)Language : RussianEncoded date : UTC 2015-02-10 12:44:35Tagged date : UTC 2015-02-10 12:44:35


Трекер:  [ 10-Фев-2015 20:30 ]

  

Скачать .torrent

Размер .torrent файла 15 KB


Размер: 2.83 GB
Хэш (hash) релиза: 137bdcb7f320fac4758f263dea905cf85eed4bd8

Еще никто не оставлял запись к записи скачать торрент [SERIAL] Мажор Серии: 1-12 из 12 . Будь первым!

!Обратная связь