Click to share on Twitter (Opens in new window) | Black Panther 2018 TRUEFRENCH 720p | Immer Ärger mit Newton

Скачать через торрент Ёлки лохматые бесплатно русская версия torrent активатор

Статистика раздачи
Размер:  660 MB   |    Зарегистрирован:  3 года 5 месяцев   |    .torrent скачан:  53 раза   |   
Раздают:  1  
   
загрузка...
 
Автор Сообщение

Galfimbul

avatar Galfimbul


Оригинальное название: Ёлки лохматые
Год выпуска: 2015
Жанр: Комедия, семейный
Режиссер: Максим Свешников
В ролях: Андрей Мерзликин, Ян Цапник, Валерия Стреляева, Галина Коньшина, Игорь Власов, Сергей Троев, Айса Энимал Арт, Пётр Фёдоров, Анна Чиповская, Андрей Федорцов

О фильме: "Ёлки лохматые" - продолжение одной сюжетной линии из "Ёлки 3". На этот раз хозяйка Пирата и Йоко — самарская девочка Настя — улетает с бабушкой в Питер, оставляя питомцев в отеле для собак. Расценив это как предательство, животные сбегают домой, где можно наконец почувствовать себя человеком — есть сколько угодно, играть без устали и спать на хозяйской кровати. Но райский отдых влюбленных прерывают два незадачливых воришки, которых ждет нечеловеческий прием…


Выпущено: Россия, Базелевс Продакшн
Продолжительность: 01:25:48

Формат: MP4
Качество: HDRip
Видео: 935 Kb/s, 640x272
Аудио: AAC, 128 Kb/s (2 ch)
Формат : MPEG-4
Профиль формата : Base Media
Идентификатор кодека : isom
Размер файла : 660 MiB
Продолжительность : 1h 25mn
Общий поток : 1 075 Kbps
Программа кодирования : XviD4PSP 6.0 / 54.29.105

Video
Идентификатор : 1
Формат : AVC
Формат/Информация : Advanced Video Codec
Профиль формата : [email protected]
Параметр CABAC формата : Yes
Параметр ReFrames формата : 5 frames
Идентификатор кодека : avc1
Идентификатор кодека/Информация : Advanced Video Coding
Продолжительность : 1h 25mn
Битрейт : 935 Kbps
Ширина : 640 pixels
Высота : 272 pixels
Соотношение сторон : 2.35:1
Соотношение сторон в оригинале : 2.35:1
Режим частоты кадров : Constant
Частота кадров : 60.000 fps
Цветовое пространство : YUV
Субдискретизация насыщенности : 4:2:0
Битовая глубина : 8 bits
Тип развёртки : Progressive
Бит/(Пиксели*Кадры) : 0.090
Размер потока : 574 MiB (87%)
Библиотека кодирования : x264 core 128 r2216M 198a7ea
Настройки программы : cabac=1 / ref=6 / deblock=1:-2:-2 / analyse=0x3:0x133 / me=tesa / subme=10 / psy=1 / psy_rd=1.00:0.25 / mixed_ref=1 / me_range=16 / chroma_me=1 / trellis=2 / 8x8dct=1 / cqm=0 / deadzone=6,6 / fast_pskip=1 / chroma_qp_offset=-4 / threads=2 / lookahead_threads=1 / sliced_threads=0 / nr=0 / decimate=0 / interlaced=0 / bluray_compat=0 / constrained_intra=0 / bframes=6 / b_pyramid=1 / b_adapt=2 / b_bias=0 / direct=3 / weightb=1 / open_gop=0 / weightp=2 / keyint=600 / keyint_min=60 / scenecut=40 / intra_refresh=0 / rc_lookahead=40 / rc=crf / mbtree=1 / crf=20.0 / qcomp=0.80 / qpmin=10 / qpmax=51 / qpstep=4 / vbv_maxrate=9000 / vbv_bufsize=1835 / crf_max=30.0 / nal_hrd=none / ip_ratio=1.10 / aq=1:0.50

Audio
Идентификатор : 2
Формат : AAC
Формат/Информация : Advanced Audio Codec
Профиль формата : LC
Идентификатор кодека : 40
Продолжительность : 1h 25mn
Вид битрейта : Constant
Битрейт : 128 Kbps
Каналы : 2 channels
Расположение каналов : Front: L R
Частота : 48.0 KHz
Метод сжатия : Lossy
Размер потока : 78.5 MiB (12%)
Скриншоты:


Трекер:  [ 09-Фев-2015 22:00 ]

  

Скачать .torrent

Размер .torrent файла 13 KB


Размер: 660 MB
Хэш (hash) релиза: 82b18df36b6c3373f5fc92893e15bc6154c50a2b

Торренты, похожие на Ёлки лохматые скачать торрент

Форум Название Автор Размер S L Добавлен
Видео (Фильмы/Клипы) ·· [VIDEO] Ёлки лохматые (Максим Свешников) [2014, Россия, семейный, комедия, HDRip][MP4, 480x] Galfimbul 395930854378 MB 0 0 1434464284

17:18

16-Июн-15

Видео (iPhone/iPod Touch/iPad) ·· Ёлки лохматые (Максим Свешников) [2014, Россия, семейный, комедия, BDRip HD (720p)] Original Galfimbul 29882724992.78 GB 0 0 1428164660

19:24

4-Апр-15

Еще никто не оставлял запись к записи скачать торрент Ёлки лохматые . Будь первым!

!Обратная связь