More videos... | Elbitz.net | EZ | E-Learning | 2018 Review | Punjabi Movies

Скачать через торрент [SERIAL] Косатка Серии: 1-20 из 20 бесплатно русская версия torrent активатор

Статистика раздачи
Размер:  3.9 GB   |    Зарегистрирован:  3 года 5 месяцев   |    .torrent скачан:  47 раз   |   
Раздают:  1  
   
загрузка...
 
Автор Сообщение

Galfimbul

avatar Galfimbul


Косатка
Год выпуска: 2015
Страна: Россия
Жанр: Детектив, криминальный фильм
Продолжительность: 20 x ~00:45:00
Перевод: Не требуется
Русские субтитры: нет
Режиссер: Илья Максимов
В ролях: Ольга Ломоносова, Владимир Епифанцев, Сергей Астахов, Сергей Марин, Игорь Шаройко, Владислав Шкляев, Сергей Багаев, Тимур Ефременков, Денис Дружинин, Павел Конек, Андрей Муравьёв, Вероника Лысакова, Александр Туравинин, Юрий Коноплянников, Филипп Волошин, Маргарита Иванова-Донская (IV), Даниил Неверов, Денис Первомайский, Наталья Тищенко, Андрей Кочинов, Геннадий Семёнов, Даниил Масленников, Вячеслав Разбегаев, Александр Тютин, Сергей Мухин, Наталия Быстрова, Вадим Ракитин, Юрий Лопарёв
Описание: В отделе криминальной полиции города Костромы появляется новый сотрудник – майор Ольга Косаткина.
Все отделение взбудоражено с приходом Косаткиной. Но не только потому, что Косаткина красивая и умная женщина. В первую очередь все пытаются узнать, почему Косаткина променяла весьма успешную карьеру в Санкт-Петербурге на трудную и скучную работу в провинции. Сама Косаткина не спешит откровенничать, а все расспросы и догадки решительно пресекает. Несмотря на подозрительность, а иногда и просто враждебное отношение со стороны некоторых коллег, Косаткина проявляет себя в качестве крепкого профессионала, а её чувство справедливости и честность позволяют завоевать авторитет как у коллег, так и у жителей Костромы. Но, чем больше преступлений раскрывает команда Косатки, тем туже сплетается клубок непростых отношений между тремя операми и Ольгой. Матерые сыщики влюбляются в нее как мальчишки, и между ними начинается настоящее соперничество за сердце неприступной Косатки...
Качество: HDTVRip
Формат: MP4
Видео кодек: H.264
Аудио кодек: AAC
Видео: AVC, 480x272 (16:9), 25.000 fps, 500 Kbps (0.153 bit/pixel)
Аудио: AAC LC, 44.1 KHz, 2 ch, 128 Kbps, CBR (Russian)
Все раздачи сериала
GeneralComplete name : D:\Documents\Мои видеозаписи\Kosatka.2015\Kosatka.06.2015.HDTVRip.mp4Format : MPEG-4Format profile : Base MediaCodec ID : isomFile size : 197 MiBDuration : 42mn 34sOverall bit rate : 647 KbpsEncoded date : UTC 2015-02-01 16:12:50Tagged date : UTC 2015-02-01 16:12:50Writing application : Lavf56.19.100Comment : by aleksd72

VideoID : 1Format : AVCFormat/Info : Advanced Video CodecFormat profile : [email protected] settings, CABAC : NoFormat settings, ReFrames : 2 framesCodec ID : avc1Codec ID/Info : Advanced Video CodingDuration : 42mn 34sBit rate : 512 KbpsWidth : 480 pixelsHeight : 272 pixelsDisplay aspect ratio : 16:9Frame rate mode : ConstantFrame rate : 25.000 fpsStandard : ComponentColor space : YUVChroma subsampling : 4:2:0Bit depth : 8 bitsScan type : ProgressiveBits/(Pixel*Frame) : 0.157Stream size : 156 MiB (79%)Writing library : x264 core 144 r2525Encoding settings : cabac=0 / ref=2 / deblock=1:-1:-1 / analyse=0x3:0x133 / me=hex / subme=7 / psy=1 / psy_rd=1.00:0.10 / mixed_ref=0 / me_range=16 / chroma_me=1 / trellis=1 / 8x8dct=1 / cqm=0 / deadzone=21,11 / fast_pskip=1 / chroma_qp_offset=-3 / threads=3 / lookahead_threads=1 / sliced_threads=0 / nr=0 / decimate=1 / interlaced=0 / bluray_compat=0 / constrained_intra=0 / bframes=0 / weightp=0 / keyint=250 / keyint_min=25 / scenecut=40 / intra_refresh=0 / rc_lookahead=40 / rc=abr / mbtree=1 / bitrate=512 / ratetol=1.0 / qcomp=0.60 / qpmin=10 / qpmax=69 / qpstep=4 / vbv_maxrate=24000 / vbv_bufsize=24000 / nal_hrd=none / filler=0 / ip_ratio=1.40 / aq=1:1.00Encoded date : UTC 2015-02-01 16:12:50Tagged date : UTC 2015-02-01 16:12:50Color range : Limited

AudioID : 2Format : AACFormat/Info : Advanced Audio CodecFormat profile : LCCodec ID : 40Duration : 42mn 34sDuration_LastFrame : -6msBit rate mode : ConstantBit rate : 128 KbpsChannel(s) : 2 channelsChannel positions : Front: L RSampling rate : 44.1 KHzCompression mode : LossyStream size : 39.0 MiB (20%)Language : RussianEncoded date : UTC 2015-02-01 16:12:50Tagged date : UTC 2015-02-01 16:12:50


Трекер:  [ 05-Фев-2015 18:30 ]

  

Скачать .torrent

Размер .torrent файла 21 KB


Размер: 3.9 GB
Хэш (hash) релиза: 245ed6be3f9fbcc9d16b8c69531797242c9620b9

Еще никто не оставлял запись к записи скачать торрент [SERIAL] Косатка Серии: 1-20 из 20 . Будь первым!

!Обратная связь