Dantalian no Shoka | C era una volta... Pollon | Talk Like TED

Скачать через торрент Репортаж: Апокалипсис бесплатно русская версия torrent активатор

Статистика раздачи
Размер:  637 MB   |    Зарегистрирован:  3 года 5 месяцев   |    .torrent скачан:  49 раз   |   
Раздают:  1  
   
загрузка...
 
Автор Сообщение

Galfimbul

avatar Galfimbul


Название: Репортаж: Апокалипсис
[REC] 4: Apocalipsis

Год выхода: 2014
Жанр: ужасы
Режиссер: Жауме Балагуэро
В ролях: Мануэла Веласко, Хавьер Ботет, Пако Мансанедо, Мария Альфонса Россо, Исмаэль Фричи, Криспуло Кабесас, Мариано Венансио, Эмилио Буале, Эктор Коломе, Марк Шардан

О фильме: Анхела приходит в себя на корабле посреди океана. После вспышки эпидемии неизвестного вируса, превращающего людей в зомби, ученые решили изолировать инфицированных, но не заболевших людей, чтобы исследовать природу заразы. На специально оборудованном бывшем нефтяном танкере есть все необходимое оборудование для проведения лабораторных экспериментов. Но, ни ученые, ни команда даже не догадываются, что их ждет. Ведь инфицированные несут в себе гибель для всего человечества.


Выпущено: Испания
Продолжительность: 01:34:59
Озвучивание: Дублированное [чистый звук] Официальный

Файл
Формат: MP4
Качество: HDRip
Видео: 798 Kb/s, 640x272
Аудио: AAC, 128 Kb/s (2 ch)
Формат : MPEG-4
Профиль формата : Base Media
Идентификатор кодека : isom
Размер файла : 637 MiB
Продолжительность : 1h 34mn
Общий поток : 938 Kbps
Программа кодирования : XviD4PSP 6.0 / 54.29.105

Video
Идентификатор : 1
Формат : AVC
Формат/Информация : Advanced Video Codec
Профиль формата : [email protected]
Параметр CABAC формата : Yes
Параметр ReFrames формата : 5 frames
Идентификатор кодека : avc1
Идентификатор кодека/Информация : Advanced Video Coding
Продолжительность : 1h 34mn
Битрейт : 798 Kbps
Ширина : 640 pixels
Высота : 272 pixels
Соотношение сторон : 2.35:1
Соотношение сторон в оригинале : 2.35:1
Режим частоты кадров : Constant
Частота кадров : 60.000 fps
Цветовое пространство : YUV
Субдискретизация насыщенности : 4:2:0
Битовая глубина : 8 bits
Тип развёртки : Progressive
Бит/(Пиксели*Кадры) : 0.076
Размер потока : 542 MiB (85%)
Библиотека кодирования : x264 core 128 r2216M 198a7ea
Настройки программы : cabac=1 / ref=6 / deblock=1:-2:-2 / analyse=0x3:0x133 / me=tesa / subme=10 / psy=1 / psy_rd=1.00:0.25 / mixed_ref=1 / me_range=16 / chroma_me=1 / trellis=2 / 8x8dct=1 / cqm=0 / deadzone=6,6 / fast_pskip=1 / chroma_qp_offset=-4 / threads=2 / lookahead_threads=1 / sliced_threads=0 / nr=0 / decimate=0 / interlaced=0 / bluray_compat=0 / constrained_intra=0 / bframes=6 / b_pyramid=1 / b_adapt=2 / b_bias=0 / direct=3 / weightb=1 / open_gop=0 / weightp=2 / keyint=600 / keyint_min=60 / scenecut=40 / intra_refresh=0 / rc_lookahead=40 / rc=crf / mbtree=1 / crf=20.0 / qcomp=0.80 / qpmin=10 / qpmax=51 / qpstep=4 / vbv_maxrate=9000 / vbv_bufsize=1835 / crf_max=30.0 / nal_hrd=none / ip_ratio=1.10 / aq=1:0.50

Audio
Идентификатор : 2
Формат : AAC
Формат/Информация : Advanced Audio Codec
Профиль формата : LC
Идентификатор кодека : 40
Продолжительность : 1h 34mn
Вид битрейта : Constant
Битрейт : 128 Kbps
Каналы : 2 channels
Расположение каналов : Front: L R
Частота : 48.0 KHz
Метод сжатия : Lossy
Размер потока : 86.9 MiB (14%)
Язык : Russian
Скриншоты:


Трекер:  [ 05-Фев-2015 00:30 ]

  

Скачать .torrent

Размер .torrent файла 13 KB


Размер: 637 MB
Хэш (hash) релиза: b4960ee696b1c9042255de9177a9fb2e5c89da82

Еще никто не оставлял запись к записи скачать торрент Репортаж: Апокалипсис . Будь первым!

!Обратная связь